Today is a free download without charge Download

Бэтмен: Начало / Batman Begins (Кристофер Нолан) [2005 г., боевик, триллер, драма, криминал, DVDRip]

Reply to topic
 
Author
Message

centrashi ®

Gender:

Longevity: 8 years 10 months

Posts: 51

Location: Украина

Торрент-статистика

Post 15-Mar-2012 21:27

[Quote]

Бэтмен: Начало / Batman Begins
Русское название: Бэтмэн:Начало
Оригинальное название: Batman Begins
Год выпуска: 2005
Режиссер: Кристофер Нолан
В ролях: Кристиан Бэйл, Лиам Нисон, Кэти Холмс, Гари Олдман, Майкл Кейн, Киллиан Мёрфи, Том Уилкинсон, Кен Ватанабе, Морган Фриман, Рутгер Хауэр
Страна: США, Великобритания
Продолжительность: 140 мин. / 02:20
Продюссер: Ларри Дж. Франко, Лорни Орлинз, Чарльз Ровен
Сценарий: Дэвид С. Гойер, Кристофер Нолан, Боб Кэйн
Премьера в мире: 15 июня 2005
Жанр: боевик, триллер, драма, криминал
Перевод:Профессиональный (многоголосый, закадровый)
Бюджет: $150 000 000
Описание: История о происхождении легенды Брюса Уэйна, юного наследника огромного состояния, потерявшего своих родителей. Покинув родной Готэм, он отправляется в путешествие по миру. Многочисленные преграды и лишения закаляют его характер, а мудрый наставник помогает вновь обрести смысл жизни.Легендарный герой, защитник слабых и борец с несправедливостью преображается у тебя на глазах. Вернувшись в Готэм, Бэтмен становится единственной преградой на пути у сил зла, готовых ввергнуть город во мрак беззакония...
PG-13 - Детям до 13 лет просмотр не желателен
8.30 (379 290)

Качество: DVDRip
Формат: AVI
Видео кодек: Xvid
Аудио кодек: AC3
Видео: Xvid 608x256 25.00fps
Аудио: Dolby AC3 48000Hz 6ch 384kbps

MediaInfo

Код:
Полное имя                       : D:\скчаное с торрента\бэтмэн\BMan_Nachalo.avi
Формат                           : AVI
Формат/Информация                : Audio Video Interleave
Размер файла                     : 1,35 Гбайт
Продолжительность                : 2 ч. 14 м.
Общий поток                      : 1442 Кбит/сек
Программа кодирования            : VirtualDubMod 1.5.10.1 (build 2366/release)
Библиотека кодирования           : VirtualDubMod build 2366/release
Видео
Идентификатор                    : 0
Формат                           : MPEG-4 Visual
Профиль формата                  : Advanced [email protected]
Параметр BVOP формата            : 2
Параметр QPel формата            : Нет
Параметр GMC формата             : Без точки перехода
Параметр матрицы формата         : Default (MPEG)
Режим смешивания                 : Сжатый битовый поток
Идентификатор кодека             : XVID
Идентификатор кодека/Подсказка   : XviD
Продолжительность                : 2 ч. 14 м.
Битрейт                          : 1064 Кбит/сек
Ширина                           : 608 пикселей
Высота                           : 256 пикселей
Соотношение сторон               : 2,40:1
Частота кадров                   : 25,000 кадров/сек
Цветовое пространство            : YUV
Субдискретизация насыщенности    : 4:2:0
Битовая глубина                  : 8 бит
Тип развёртки                    : Прогрессивная
Метод сжатия                     : С потерями
Бит/(Пиксели*Кадры)              : 0.273
Размер потока                    : 1022 Мбайт (74%)
Библиотека кодирования           : XviD 1.0.3 (UTC 2004-12-20)
Аудио
Идентификатор                    : 1
Формат                           : AC-3
Формат/Информация                : Audio Coding 3
Расширение режима                : CM (complete main)
Идентификатор кодека             : 2000
Продолжительность                : 2 ч. 8 м.
Вид битрейта                     : Постоянный
Битрейт                          : 384 Кбит/сек
Каналы                           : 6 каналов
Расположение каналов             : Front: L C R, Side: L R, LFE
Частота                          : 48,0 КГц
Битовая глубина                  : 16 бит
Метод сжатия                     : С потерями
Размер потока                    : 354 Мбайт (26%)
Выравнивание                     : Разделение по промежуткам
Продолжительность промежутка     : 42  мс. (1,04 видеокадр)
Время предзагрузки промежутка    : 500  мс.

Скриншоты

           

_________________
Бороться и искать, найти и не сдваться.


Last edited by centrashi on 2012-03-16 14:16; edited 7 times in total
Other forum [Profile] [PM]
Display posts from previous:    
Reply to topic

The time now is: Today 14:30

All times are GMT + 3 Hours



You cannot post new topics in this forum
You cannot reply to topics in this forum
You cannot edit your posts in this forum
You cannot delete your posts in this forum
You cannot vote in polls in this forum
You cannot attach files in this forum
You cannot download files in this forum