Today is a free download without charge Download

Волшебное кольцо (Леонид Носырев) [1979, мультфильм, DVB]

Reply to topic
 
Author
Message

Omen ®

Longevity: 7 years 11 months

Posts: 181087

Торрент-статистика

Post 18-Feb-2015 15:00

[Quote]

Волшебное кольцо
Страна: СССР, Союзмультфильм
Жанр: мультфильм
Год выпуска: 1979
Продолжительность: 00:18:40
Режиссёр: Леонид Носырев
Описание: мультфильм о том , что у Вани совсем нет денег, а свою последнюю одежду он отдал за спасение несчастных животных. Теперь у него дома живет кошка, собака и змея. Но неожиданно оказалось, что эта змея — дочь короля, поэтому за свое спасение она подарила ему волшебное кольцо. И теперь Ваня может пожелать все, что угодно, и его желание исполнится !
Доп. информация: по сказкам Бориса Шергина

Трансляция спутникового канала:

Качество видео: DVB
Формат видео: MPEG-PS
Видео: MPEG2 Video, 720x576 (4:3), 25 fps, 3900 kbps
Аудио: MPEG Audiо, 2 сh, 48 kHz, 192 kbps

Сравнение

скрытый текст


скрытый текст


скрытый текст


скрытый текст


MediaInfo

General
Complete name : D:\Волшебное кольцо. (1979)_DVB by SLuMeP.mpg
Format : MPEG-PS
File size : 563 MiB
Duration : 18mn 40s
Overall bit rate mode : Variable
Overall bit rate : 4 213 Kbps
Video
ID : 224 (0xE0)
Format : MPEG Video
Format version : Version 2
Format profile : [email protected]
Format settings, BVOP : No
Format settings, Matrix : Custom
Format settings, GOP : M=3, N=12
Duration : 18mn 40s
Bit rate mode : Variable
Bit rate : 3 937 Kbps
Maximum bit rate : 5 000 Kbps
Width : 720 pixels
Height : 576 pixels
Display aspect ratio : 4:3
Frame rate : 25.000 fps
Standard : PAL
Color space : YUV
Chroma subsampling : 4:2:0
Bit depth : 8 bits
Scan type : Interlaced
Scan order : Top Field First
Compression mode : Lossy
Bits/(Pixel*Frame) : 0.380
Time code of first frame : 00:00:00:00
Time code source : Group of pictures header
Stream size : 526 MiB (93%)
Audio
ID : 192 (0xC0)
Format : MPEG Audio
Format version : Version 1
Format profile : Layer 2
Duration : 18mn 40s
Bit rate mode : Constant
Bit rate : 192 Kbps
Channel(s) : 2 channels
Sampling rate : 48.0 KHz
Compression mode : Lossy
Stream size : 25.7 MiB (5%)

Скриншоты


Other forum [Profile] [PM]
Display posts from previous:    
Reply to topic

The time now is: Today 04:07

All times are GMT + 3 Hours



You cannot post new topics in this forum
You cannot reply to topics in this forum
You cannot edit your posts in this forum
You cannot delete your posts in this forum
You cannot vote in polls in this forum
You cannot attach files in this forum
You cannot download files in this forum