Today is a free download without charge Download

Рыжий, рыжий, конопатый (Леонид Носырев) [1971, мультфильм, DVB]

Reply to topic
 
Author
Message

Omen ®

Longevity: 7 years 11 months

Posts: 181087

Торрент-статистика

Post 17-Feb-2015 21:01

[Quote]

Рыжий, рыжий, конопатый
Страна: СССР
Жанр: мультфильм
Год выпуска: 1971
Продолжительность: 00:03:28
Режиссёр: Леонид Носырев
Описание: мультфильм про рыжего мальчика, над которым все смеялись, пока солнце всех не позолотило и все стали рыжими.
Доп. информация:

Трансляция спутникового канала:

Качество видео: DVB
Формат видео: MPEG-PS
Видео: MPEG2 Video, 720x576 (4:3), 25 fps, 3800 kbps
Аудио: MPEG Audiо, 2 сh, 48 kHz, 192 kbps

Сравнение

http:///*spam*//forum/viewtopic.php?t=1804196 (сыпется картинка на 00:04:36 )

скрытый текст


http:///*spam*//forum/viewtopic.php?t=1502626

скрытый текст


http:///*spam*//forum/viewtopic.php?t=1504368

скрытый текст


http:///*spam*//forum/viewtopic.php?t=229127

скрытый текст


MediaInfo

General
Complete name : D:\Рыжий, рыжий, конопатый. (1971)_DVB by SLuMeP.mpg
Format : MPEG-PS
File size : 101 MiB
Duration : 3mn 28s
Overall bit rate mode : Variable
Overall bit rate : 4 068 Kbps
Video
ID : 224 (0xE0)
Format : MPEG Video
Format version : Version 2
Format profile : [email protected]
Format settings, BVOP : No
Format settings, Matrix : Custom
Format settings, GOP : M=3, N=12
Duration : 3mn 28s
Bit rate mode : Variable
Bit rate : 3 795 Kbps
Maximum bit rate : 5 000 Kbps
Width : 720 pixels
Height : 576 pixels
Display aspect ratio : 4:3
Frame rate : 25.000 fps
Standard : PAL
Color space : YUV
Chroma subsampling : 4:2:0
Bit depth : 8 bits
Scan type : Interlaced
Scan order : Top Field First
Compression mode : Lossy
Bits/(Pixel*Frame) : 0.366
Time code of first frame : 00:00:00:00
Time code source : Group of pictures header
Stream size : 94.4 MiB (93%)
Audio
ID : 192 (0xC0)
Format : MPEG Audio
Format version : Version 1
Format profile : Layer 2
Duration : 3mn 28s
Bit rate mode : Constant
Bit rate : 192 Kbps
Channel(s) : 2 channels
Sampling rate : 48.0 KHz
Compression mode : Lossy
Stream size : 4.78 MiB (5%)

Скриншоты


Other forum [Profile] [PM]
Display posts from previous:    
Reply to topic

The time now is: Today 04:51

All times are GMT + 3 Hours



You cannot post new topics in this forum
You cannot reply to topics in this forum
You cannot edit your posts in this forum
You cannot delete your posts in this forum
You cannot vote in polls in this forum
You cannot attach files in this forum
You cannot download files in this forum