Today is a free download without charge Download

Элька (Владимир Саков)[2007.,Рисованная анимация, Приключения, Детский] DVDRip [H.264]

Reply to topic
 
Author
Message

sashau ®

Gender:

Longevity: 8 years 10 months

Posts: 3497

Торрент-статистика

Post 17-Feb-2015 15:15

[Quote]

Элька - Производство: Россия
Жанр: Рисованная анимация, Приключения, Детский
Режиссер: Владимир Саков
Персонажи: Александр Филиппенко, Алексей Булдаков, Юрий Гальцев, Елена Воробей, Алексей Колган, Лариса Брохман
Описание фильма:
Эта история происходит накануне Нового года. Белый медвежонок Элька обнаруживает возле своего дома Волшебный Тоннель Дружбы, который соединяет Северный и Южный полюс.
Благодаря этому Тоннелю у Эльки появляется подруга — пингвиненок Таша. Она рассказывает Эльке, что в Антарктиде, откуда она родом, происходит нечто ужасное — злые люди с помощью порабощенных пингвинов воруют снег, и его уже почти не осталось. Такая же опасность грозит и Арктике. Элька и Таша немедленно отправляются спасать Антарктиду.
На Южном полюсе у отважных медвежонка и пингвиненка появляются верные друзья — меланхоличная пессимистка Чайка и компьютерный гений, умеющий найти доступ в Интернет даже среди снежных равнин — тюлень Мартик. Эту компанию ожидают самые невероятные приключения. Им предстоит выяснить, зачем злодеи похищают снег и откуда взялся ужасный робот Макси Маус. А в Ледяном Дворце друзья встретят Кая и Герду, которые совсем не похожи на персонажей сказки Андерсена…

Продолжительность: 01:25:15
Качество видео: DVDRip [H.264]
Вид субтитров: Отсутствуют

Mediainfo:

Код:
Видео
Идентификатор                            : 1
Формат                                   : AVC
Формат/Информация                        : Advanced Video Codec
Профиль формата                          : [url=mailto:[email protected]][email protected][/url]
Параметр CABAC формата                   : Да
Параметр ReFrames формата                : 4 кадра
Идентификатор кодека                     : V_MPEG4/ISO/AVC
Продолжительность                        : 1 ч. 25 м.
Битрейт                                  : 1857 Кбит/сек
Ширина                                   : 720 пикселей
Высота                                   : 368 пикселей
Соотношение сторон                       : 1,957
Режим частоты кадров                     : Постоянный
Частота кадров                           : 25,000 кадров/сек
Цветовое пространство                    : YUV
Субдискретизация насыщенности            : 4:2:0
Битовая глубина                          : 8 бит
Тип развёртки                            : Прогрессивная
Бит/(Пиксели*Кадры)                      : 0.280
Размер потока                            : 1,08 Гбайт (79%)
Библиотека кодирования                   : x264 core 130 r2273 b3065e6
Настройки программы                      : cabac=1 / ref=4 / deblock=1:0:0 / analyse=0x3:0x113 / me=umh / subme=10 / psy=1 / psy_rd=1.00:0.00 / mixed_ref=1 / me_range=32 / chroma_me=1 / trellis=2 / 8x8dct=1 / cqm=0 / deadzone=21,11 / fast_pskip=0 / chroma_qp_offset=-2 / threads=3 / lookahead_threads=1 / sliced_threads=0 / nr=0 / decimate=1 / interlaced=0 / bluray_compat=0 / constrained_intra=0 / bframes=7 / b_pyramid=2 / b_adapt=2 / b_bias=0 / direct=3 / weightb=1 / open_gop=0 / weightp=2 / keyint=250 / keyint_min=25 / scenecut=40 / intra_refresh=0 / rc_lookahead=40 / rc=2pass / mbtree=1 / bitrate=1857 / ratetol=1.0 / qcomp=0.60 / qpmin=0 / qpmax=69 / qpstep=4 / cplxblur=20.0 / qblur=0.5 / ip_ratio=1.40 / aq=1:0.80
Default                                  : Да
Forced                                   : Нет
Аудио
Идентификатор                            : 2
Формат                                   : AC-3
Формат/Информация                        : Audio Coding 3
Расширение режима                        : CM (complete main)
Параметр Endianness формата              : Big
Идентификатор кодека                     : A_AC3
Продолжительность                        : 1 ч. 25 м.
Вид битрейта                             : Постоянный
Битрейт                                  : 448 Кбит/сек
Каналы                                   : 6 каналов
Расположение каналов                     : Front: L C R, Side: L R, LFE
Частота                                  : 48,0 КГц
Битовая глубина                          : 16 бит
Метод сжатия                             : С потерями
Размер потока                            : 273 Мбайт (19%)
Default                                  : Да
Forced                                   : Нет

Знаете ли вы, что:

Мультфильм удостоился Гран-при Всероссийского фестиваля визуальных искусств «За Разработку нового российского анимационного образа детского героя» (2006), а также получил приз «За лучший персонаж детского анимационного кино» на Международном фестивале детского анимационного кино «Золотая рыбка» (2006).
Фильм создавался в течение 2,5 лет.
Первый за последние несколько лет российский полнометражный мультфильм, ориентированный на детскую аудиторию в возрасте от 4 до 12 лет.
Элька является символом ежегодной Всероссийской массовой гонки «Лыжня России».
Скриншоты:
       

Дополнительные скриншоты:

                                 
Other forum [Profile] [PM]
Display posts from previous:    
Reply to topic

The time now is: Today 12:06

All times are GMT + 3 Hours



You cannot post new topics in this forum
You cannot reply to topics in this forum
You cannot edit your posts in this forum
You cannot delete your posts in this forum
You cannot vote in polls in this forum
You cannot attach files in this forum
You cannot download files in this forum