Today is a free download without charge Download

Граф Монте-Кристо / The Count of Monte Cristo (Кевин Рейнольдс) [2002 г., драма, приключения, мелодрама, триллер]

Reply to topic
 
Author
Message

centrashi ®

Gender:

Longevity: 9 years 5 months

Posts: 51

Location: Украина

Торрент-статистика

Post 14-Mar-2012 18:40

[Quote]

Граф Монте-Кристо / The Count of Monte Cristo

Русское название: Граф Монте-Кристо
Оригинальное название: The Count of Monte Cristo
Год выхода: 2002
Режиссер: Кевин Рейнольдс
В ролях: Джеймс Кэвизел, Гай Пирс, Ричард Харрис, Джеймс Фрейн, Дагмара Доминчик, Майкл Уинкотт, Луис Гузман, Кристофер Адамсон, Джейби Бланк, Гай Карлто
Страна производства: США, Великобритания, Ирландия
Продолжительность: 131 мин. / 02:11
Продюсер: Гари Барбер, Ребека Радд, Эндрю Сомпер
Сценарий: Джей Уолперт, Александр Дюма отец
Премьера в мире: 23 января 2002
Жанр: триллер, драма, мелодрама, приключения
Перевод: Профессиональный (двухголосый)
Русские субтитры: нет
Описание: Так же, как и в знаменитой классической истории, главным героем фильма является Эдмон Дантес. Этого бесхитростного молодого человека, собирающегося жениться на красавице Мерседес, предает его лучший друг Фернан.Оказавшись заключенным в тюрьму, Эдмон Дантес в течение тринадцати лет вынужден терпеть лишения и лелеять мысли о мести своим обидчикам. С помощью человека, сидящего с ним в соседней камере, Эдмону удается бежать из тюрьмы.После этого он появляется в обществе в качестве богатого благородного и могущественного графа Монте-Кристо, который искусно и беспощадно расправляется с людьми, обманувшими и предавшими его много лет назад
Рейтинг MPAA: PG-13 - Детям до 13 лет просмотр не желателен
Рейтинг IMDB:
Рейтинг Kinopoisk:
Качество: DVD9
Формат: DVD Video
Видео кодек: MPEG2
Аудио кодек: AC3
Видео: NTSC 16:9 (720x480) VBR ~6500Kbps (3800-8800), Auto Letterboxed
Аудио:
Audio #1 (английский): AC3, 3/2+LFE ch, 448Kbps,
Audio #2 (русский профессиональный двухголосый войсовер): AC3, 3/2+LFE ch, 384Kbps,
Audio #3 (англ. режиссерский комментарий): AC3, 2/0 ch, 192Kbps
Код:
Полное имя                       : D:\скчаное с торрента\graf_monte_kristo.avi
Формат                           : AVI
Формат/Информация                : Audio Video Interleave
Профиль формата                  : OpenDML
Размер файла                     : 2,20 Гбайт
Продолжительность                : 2 ч. 11 м.
Общий поток                      : 2398 Кбит/сек
Программа кодирования            : VirtualDubMod 1.5.10.3 | www.virtualdub-fr.org || (build 2550/release)
Библиотека кодирования           : VirtualDubMod build 2550/release
Видео
Идентификатор                    : 0
Формат                           : MPEG-4 Visual
Профиль формата                  : Advanced [email protected]
Параметр BVOP формата            : 2
Параметр QPel формата            : Нет
Параметр GMC формата             : Без точки перехода
Параметр матрицы формата         : Default (H.263)
Идентификатор кодека             : XVID
Идентификатор кодека/Подсказка   : XviD
Продолжительность                : 2 ч. 11 м.
Битрейт                          : 1938 Кбит/сек
Ширина                           : 720 пикселей
Высота                           : 392 пикселя
Соотношение сторон               : 16:9
Частота кадров                   : 23,976 кадра/сек
Цветовое пространство            : YUV
Субдискретизация насыщенности    : 4:2:0
Битовая глубина                  : 8 бит
Тип развёртки                    : Прогрессивная
Метод сжатия                     : С потерями
Бит/(Пиксели*Кадры)              : 0.286
Размер потока                    : 1,78 Гбайт (81%)
Библиотека кодирования           : XviD 1.2.1 (UTC 2008-12-04)
Аудио
Идентификатор                    : 1
Формат                           : AC-3
Формат/Информация                : Audio Coding 3
Расширение режима                : CM (complete main)
Идентификатор кодека             : 2000
Продолжительность                : 2 ч. 11 м.
Вид битрейта                     : Постоянный
Битрейт                          : 448 Кбит/сек
Каналы                           : 6 каналов
Расположение каналов             : Front: L C R, Side: L R, LFE
Частота                          : 48,0 КГц
Битовая глубина                  : 16 бит
Метод сжатия                     : С потерями
Размер потока                    : 421 Мбайт (19%)
Выравнивание                     : Разделение по промежуткам
Продолжительность промежутка     : 42  мс. (1,00 видеокадр)
Время предзагрузки промежутка    : 500  мс.

Скриншоты

       

_________________
Бороться и искать, найти и не сдваться.


Last edited by centrashi on 2012-03-16 16:22; edited 6 times in total
Other forum [Profile] [PM]

alechalunin

Gender:

Longevity: 11 years

Posts: 46

Торрент-статистика

Post 15-Mar-2012 10:28 (after 15 hours)

[Quote]

как скачать?
Other forum [Profile] [PM]

centrashi ®

Gender:

Longevity: 9 years 5 months

Posts: 51

Location: Украина

Торрент-статистика

Post 15-Mar-2012 11:47 (after 1 hour 19 minutes)

[Quote]

попробуте сейчас, вроде исправил, извиняюсь проблемы с интернетом.

_________________
Бороться и искать, найти и не сдваться.
Other forum [Profile] [PM]
Display posts from previous:    
Reply to topic

The time now is: Today 04:03

All times are GMT + 3 Hours



You cannot post new topics in this forum
You cannot reply to topics in this forum
You cannot edit your posts in this forum
You cannot delete your posts in this forum
You cannot vote in polls in this forum
You cannot attach files in this forum
You cannot download files in this forum