Today is a free download without charge Download

Кот в сапогах / Puss in Boots (Крис Миллер / Chris Miller) [2011, США, мультфильм, комедия, приключения, семейный, DVD9] R5 «Новый Диск»

Reply to topic
 
Author
Message

voovaz ®

Gender:

Longevity: 9 years 5 months

Posts: 87

Торрент-статистика

Post 13-Mar-2012 00:00

[Quote]

-Кот в сапогах / Puss in Boots-«А до Шрэка был...» -Страна: США
Студия: DreamWorks Animation
Жанр: мультфильм, комедия, приключения, семейный
Год выпуска: 2011
Мировая премьера: 27 октября 2011
Российская премьера: 27 октября 2011, «Централ Партнершип» 3D
Дата выхода DVD: 22 марта 2012, «Новый Диск»
Дата выхода Blu-Ray: 22 марта 2012, «Новый Диск»
Продолжительность: 01:26:33
Перевод: Профессиональный (дублированный) [Лицензия]
Cубтитры: английские, русские, украинские
Оригинальная аудиодорожка: английский-Режиссер: Крис Миллер / Chris Miller-Роли озвучивали: Антонио Бандерас, Сальма Хайек, Зак Галифианакис, Билли Боб Торнтон, Эми Седарис, Констанс Мари, Гильермо дель Торо, Рич Дитль, Райан Крего, Том Вилер-Роли дублировали: Всеволод Кузнецов, Татьяна Шитова, Диомид Виноградов, Владимир Зайцев, Марина Бакина-Описание: Мечи пересекутся и сердца будут разбиты в приключениях с одним из самых любимых персонажей из Шрэка — котом в сапогах. Это удалая поездка ранних лет кота в сапогах, когда он объединяется с умным Шалтай-Болтаем и сообразительной Кисой, чтобы украсть знаменитую Гусыню, несущую золотые яйца.-Бонусы: Кот в сапогах: три дьяволенка, посмотрите на живых драконов, замечательное партнерство: голоса-легенды, удаленные сцены, трейлеры
- -Релиз группы: -Качество: DVD9 R5
Формат: DVD-Video
Видео кодек: MPEG2
Аудио кодек: AC3
Видео: PAL 16:9 (720x576(0.634)) MPEG Video, 25,000 кадр/сек, 6568 Кбит/сек
Аудио #1: English (Dolby AC3, 6 ch) 448 Кбит/сек, 48,0 КГц
Аудио #2: Russian (Dolby AC3, 6 ch) 448 Кбит/сек, 48,0 КГц
Аудио #2: Ukrainian (Dolby AC3, 6 ch) 448 Кбит/сек, 48,0 КГц-
-

DVDInfo

Title:
Size: 7.03 Gb ( 7 370 994 KBytes ) - DVD-9
Enabled regions: 1, 2, 3, 4, 5, 6, 7, 8
VTS_01 :
Play Length: 00:00:56+00:01:46+00:01:14+00:01:36+00:02:01+00:02:20
Video: PAL 16:9 (720x576) VBR, Auto Pan&Scan
Audio:
English (Dolby AC3, 2 ch)
Subtitles:
English
Russian
Ukrainian
VTS_02 :
Play Length: 00:08:59+00:01:02+00:00:30
Video: PAL 16:9 (720x576) VBR, Auto Pan&Scan
Audio:
English (Dolby AC3, 2 ch)
Subtitles:
English
Russian
Ukrainian
VTS_03 :
Play Length:
Video: PAL 16:9 (720x576) VBR, Auto Letterboxed
Audio:
Not specified (Dolby AC3, 2 ch)
Subtitles:
Not specified
VTS_04 :
Play Length: 00:00:23
Video: PAL 16:9 (720x576) VBR, Auto Pan&Scan
Audio:
Not specified (Dolby AC3, 2 ch)
VTS_05 :
Play Length: 00:00:15
Video: PAL 16:9 (720x576) VBR, Auto Letterboxed
Audio:
Not specified (Dolby AC3, 2 ch)
VTS_06 :
Play Length: 00:00:09+00:00:06
Video: PAL 16:9 (720x576) VBR, Auto Pan&Scan
Audio:
Not specified (Dolby AC3, 2 ch)
VTS_07 :
Play Length: 01:26:33
Video: PAL 16:9 (720x576) VBR, Auto Pan&Scan
Audio:
English (Dolby AC3, 6 ch)
Russian (Dolby AC3, 6 ch)
Ukrainian (Dolby AC3, 6 ch)
Subtitles:
English
Russian
Ukrainian
Russian
Ukrainian
VTS_08 :
Play Length: 00:01:01
Video: PAL 16:9 (720x576) VBR, Auto Pan&Scan
Audio:
English (Dolby AC3, 2 ch)
Subtitles:
English
Russian
Ukrainian
VTS_09 :
Play Length: 00:07:10+00:02:10+00:01:17+00:03:43
Video: PAL 16:9 (720x576) VBR, Auto Pan&Scan
Audio:
English (Dolby AC3, 2 ch)
Subtitles:
English
Russian
Ukrainian
VTS_10 :
Play Length:
Video: PAL 16:9 (720x576) VBR, Auto Pan&Scan
VTS_11 :
Play Length: 00:00:02+00:00:24
Video: PAL 16:9 (720x576) VBR, Auto Letterboxed
Audio:
Not specified (Dolby AC3, 2 ch)
Subtitles:
Not specified
VTS_12 :
Play Length:
Video: PAL 16:9 (720x576) VBR, Auto Letterboxed
VTS_13 :
Play Length: 00:01:01
Video: PAL 16:9 (720x576) VBR, Auto Pan&Scan
Audio:
English (Dolby AC3, 2 ch)
Russian (Dolby AC3, 2 ch)
Subtitles:
English
Russian
Ukrainian
VTS_14 :
Play Length: 00:02:20+00:00:51
Video: PAL 16:9 (720x576) VBR, Auto Pan&Scan
Audio:
English (Dolby AC3, 2 ch)
Subtitles:
English
Russian
Ukrainian
VTS_15 :
Play Length: 00:02:05
Video: PAL 16:9 (720x576) VBR, Auto Pan&Scan
Audio:
English (Dolby AC3, 2 ch)
Russian (Dolby AC3, 2 ch)
Ukrainian (Dolby AC3, 2 ch)
Subtitles:
English
Russian
Ukrainian
VTS_16 :
Play Length: 00:12:32
Video: PAL 16:9 (720x576) VBR, Auto Pan&Scan
Audio:
English (Dolby AC3, 6 ch)
Russian (Dolby AC3, 6 ch)
Subtitles:
English
Russian
Ukrainian
Menu Video:
PAL 16:9 (720x576) VBR
Auto Pan&Scan
Menu Subtitles:
Not specified
Menu English Language Unit :
Root Menu
Subpicture Menu
Audio Menu
Angle menu
Chapter (PTT) Menu

MediaInfo

Общее
Полное имя : G:\Новинки 2012\Kot.v.sapogah.2011.DVD9\VIDEO_TS\VTS_07_2.VOB
Формат : MPEG-PS
Размер файла : 1024 Мбайт
Продолжительность : 17 м.
Режим общего битрейта : Переменный
Общий поток : 8073 Кбит/сек
Видео
Идентификатор : 224 (0xE0)
Формат : MPEG Video
Версия формата : Version 2
Профиль формата : [email protected]
Параметр BVOP формата : Да
Параметр матрицы формата : Выборочная
Продолжительность : 17 м.
Вид битрейта : Переменный
Битрейт : 6568 Кбит/сек
Максимальный битрейт : 9800 Кбит/сек
Ширина : 720 пикселей
Высота : 576 пикселей
Соотношение сторон : 16:9
Частота кадров : 25,000 кадров/сек
Стандарт вещания : PAL
Цветовое пространство : YUV
Субдискретизация насыщенности : 4:2:0
Битовая глубина : 8 бит
Тип развёртки : Прогрессивная
Порядок развёртки : Верхнее поле первое
Метод сжатия : С потерями
Бит/(Пиксели*Кадры) : 0.634
Размер потока : 833 Мбайт (81%)
Аудио #1
Идентификатор : 189 (0xBD)-128 (0x80)
Формат : AC-3
Формат/Информация : Audio Coding 3
Расширение режима : CM (complete main)
Режим смешивания : DVD-Video
Продолжительность : 17 м.
Вид битрейта : Постоянный
Битрейт : 448 Кбит/сек
Каналы : 6 каналов
Расположение каналов : Front: L C R, Side: L R, LFE
Частота : 48,0 КГц
Битовая глубина : 16 бит
Метод сжатия : С потерями
Задержка видео : -560 мс.
Размер потока : 56,8 Мбайт (6%)
Аудио #2
Идентификатор : 189 (0xBD)-129 (0x81)
Формат : AC-3
Формат/Информация : Audio Coding 3
Расширение режима : CM (complete main)
Режим смешивания : DVD-Video
Продолжительность : 17 м.
Вид битрейта : Постоянный
Битрейт : 448 Кбит/сек
Каналы : 6 каналов
Расположение каналов : Front: L C R, Side: L R, LFE
Частота : 48,0 КГц
Битовая глубина : 16 бит
Метод сжатия : С потерями
Задержка видео : -544 мс.
Размер потока : 56,8 Мбайт (6%)
Аудио #3
Идентификатор : 189 (0xBD)-130 (0x82)
Формат : AC-3
Формат/Информация : Audio Coding 3
Расширение режима : CM (complete main)
Режим смешивания : DVD-Video
Продолжительность : 17 м.
Вид битрейта : Постоянный
Битрейт : 448 Кбит/сек
Каналы : 6 каналов
Расположение каналов : Front: L C R, Side: L R, LFE
Частота : 48,0 КГц
Битовая глубина : 16 бит
Метод сжатия : С потерями
Задержка видео : -544 мс.
Размер потока : 56,8 Мбайт (6%)
Текст #1
Идентификатор : 189 (0xBD)-32 (0x20)
Формат : RLE
Формат/Информация : Run-length encoding
Режим смешивания : DVD-Video
Продолжительность : 17 м.
Задержка видео : 1 с. 80 мс.
Текст #2
Идентификатор : 189 (0xBD)-33 (0x21)
Формат : RLE
Формат/Информация : Run-length encoding
Режим смешивания : DVD-Video
Продолжительность : 17 м.
Задержка видео : 1 с. 80 мс.
Текст #3
Идентификатор : 189 (0xBD)-34 (0x22)
Формат : RLE
Формат/Информация : Run-length encoding
Режим смешивания : DVD-Video
Продолжительность : 17 м.
Задержка видео : 1 с. 80 мс.

Скриншоты меню

           

Скриншоты мультфилма

               

Скриншоты доп. материалов

           
--
Other forum [Profile] [PM]
Display posts from previous:    
Reply to topic

The time now is: Today 02:26

All times are GMT + 3 Hours



You cannot post new topics in this forum
You cannot reply to topics in this forum
You cannot edit your posts in this forum
You cannot delete your posts in this forum
You cannot vote in polls in this forum
You cannot attach files in this forum
You cannot download files in this forum