Today is a free download without charge Download

[Interstella 5555 / Интерстелла 5555][FLAC (tracks)][lossless][OST][1CD]

Reply to topic
 
Author
Message

Omen ®

Longevity: 9 years

Posts: 181086

Торрент-статистика

Post 14-Feb-2015 15:01

[Quote]

Интерстелла 5555Общие характеристики:
Производство:
Год выпуска: 2001
Формат: FLAC
Частота: 44100Гц
Продолжительность:14 треков - 1:00:58
-Альбом:

2001 - Discovery

Discovery
Список треков:
01. One More Time [5:21]
02. Aerodynamic [3:27]
03. Digital Love [4:58]
04. Harder, Better, Faster, Stronger [3:44]
05. Crescendolls [3:32]
06. Night Vision [1:44]
07. Superheroes [3:58]
08. High Life [3:22]
09. Something About Us [3:51]
10. Voyager [3:48]
11. Veridis Quo [5:45]
12. Short Circuit [3:27]
13. Face to Face [4:00]
14. Too Long [10:00]-
-Проверка:

Открыть

2001 - Interstella 5555

ЕАС Лог

Exact Audio Copy V1.0 beta 3 from 29. August 2011
EAC extraction logfile from 21. March 2014, 21:45
- / Discovery
Used drive : PLEXTOR CD-R PREMIUM2 Adapter: 0 ID: 0
Read mode : SecureUtilize accurate stream : YesDefeat audio cache : YesMake use of C2 pointers : No
Read offset correction : 30Overread into Lead-In and Lead-Out : YesFill up missing offset samples with silence : YesDelete leading and trailing silent blocks : NoNull samples used in CRC calculations : YesUsed interface : Native Win32 interface for Win NT & 2000Gap handling : Appended to previous track
Used output format : User Defined EncoderSelected bitrate : 1024 kBit/sQuality : HighAdd ID3 tag : NoCommand line compressor : C:\Program Files (x86)\Exact Audio Copy\Flac\flac.exeAdditional command line options : -V -8 -T "Genre=%genre%" -T "Artist=%artist%" -T "Title=%title%" -T "Album=%albumtitle%" -T "Date=%year%" -T "Tracknumber=%tracknr%" -T "Comment=%comment%" %source%
TOC of the extracted CD
Track | Start | Length | Start sector | End sector --------------------------------------------------------- 1 | 0:00.00 | 5:21.30 | 0 | 24104 2 | 5:21.30 | 3:27.37 | 24105 | 39666 3 | 8:48.67 | 4:58.23 | 39667 | 62039 4 | 13:47.15 | 3:44.25 | 62040 | 78864 5 | 17:31.40 | 3:31.40 | 78865 | 94729 6 | 21:03.05 | 1:44.35 | 94730 | 102564 7 | 22:47.40 | 3:57.52 | 102565 | 120391 8 | 26:45.17 | 3:22.03 | 120392 | 135544 9 | 30:07.20 | 3:51.00 | 135545 | 152869 10 | 33:58.20 | 3:47.67 | 152870 | 169961 11 | 37:46.12 | 5:44.70 | 169962 | 195831 12 | 43:31.07 | 3:26.55 | 195832 | 211336 13 | 46:57.62 | 4:00.10 | 211337 | 229346 14 | 50:57.72 | 10:00.25 | 229347 | 274371
Track 1
Filename D:\RIPs\01 - One More Time.wav
Pre-gap length 0:00:02.00
Peak level 100.0 % Extraction speed 8.5 X Track quality 100.0 % Test CRC 4F61DD90 Copy CRC 4F61DD90 Cannot be verified as accurate (confidence 13) [9D812837], AccurateRip returned [ABAB85F7] (AR v2) Copy OK
Track 2
Filename D:\RIPs\02 - Aerodynamic.wav
Pre-gap length 0:00:00.03
Peak level 100.0 % Extraction speed 8.7 X Track quality 99.9 % Test CRC 7C059657 Copy CRC 7C059657 Cannot be verified as accurate (confidence 14) [71012181], AccurateRip returned [88645A24] (AR v2) Copy OK
Track 3
Filename D:\RIPs\03 - Digital Love.wav
Peak level 100.0 % Extraction speed 10.3 X Track quality 100.0 % Test CRC E54A2CFF Copy CRC E54A2CFF Cannot be verified as accurate (confidence 13) [E04A3433], AccurateRip returned [7B59A809] (AR v2) Copy OK
Track 4
Filename D:\RIPs\04 - Harder, Better, Faster, Stronger.wav
Peak level 100.0 % Extraction speed 10.9 X Track quality 100.0 % Test CRC C98C535E Copy CRC C98C535E Cannot be verified as accurate (confidence 13) [A709552E], AccurateRip returned [F1C2FDFB] (AR v2) Copy OK
Track 5
Filename D:\RIPs\05 - Crescendolls.wav
Pre-gap length 0:00:00.35
Peak level 100.0 % Extraction speed 11.4 X Track quality 100.0 % Test CRC E4A25356 Copy CRC E4A25356 Cannot be verified as accurate (confidence 14) [6AEDBD23], AccurateRip returned [1362D6D5] (AR v2) Copy OK
Track 6
Filename D:\RIPs\06 - Night Vision.wav
Pre-gap length 0:00:03.20
Peak level 94.0 % Extraction speed 10.8 X Track quality 100.0 % Test CRC 7AD9E23A Copy CRC 7AD9E23A Cannot be verified as accurate (confidence 13) [4E3A2128], AccurateRip returned [C7A55AD5] (AR v2) Copy OK
Track 7
Filename D:\RIPs\07 - Superheroes.wav
Pre-gap length 0:00:00.63
Peak level 100.0 % Extraction speed 11.4 X Track quality 99.9 % Test CRC AFC5765E Copy CRC AFC5765E Cannot be verified as accurate (confidence 13) [C73EFDEC], AccurateRip returned [ABEFD2AE] (AR v2) Copy OK
Track 8
Filename D:\RIPs\08 - High Life.wav
Pre-gap length 0:00:00.32
Peak level 100.0 % Extraction speed 12.6 X Track quality 100.0 % Test CRC 8B72D9EC Copy CRC 8B72D9EC Cannot be verified as accurate (confidence 14) [B3A1A09B], AccurateRip returned [39B4A8FE] (AR v2) Copy OK
Track 9
Filename D:\RIPs\09 - Something About Us.wav
Pre-gap length 0:00:02.03
Peak level 100.0 % Extraction speed 13.2 X Track quality 100.0 % Test CRC E2A5739F Copy CRC E2A5739F Cannot be verified as accurate (confidence 14) [7ED4720B], AccurateRip returned [1F79A6B9] (AR v2) Copy OK
Track 10
Filename D:\RIPs\10 - Voyager.wav
Pre-gap length 0:00:00.33
Peak level 100.0 % Extraction speed 13.7 X Track quality 100.0 % Test CRC B55DECEB Copy CRC B55DECEB Cannot be verified as accurate (confidence 14) [232B7508], AccurateRip returned [77F812E3] (AR v2) Copy OK
Track 11
Filename D:\RIPs\11 - Veridis Quo.wav
Pre-gap length 0:00:01.42
Peak level 100.0 % Extraction speed 13.8 X Track quality 99.9 % Test CRC 8E8D434D Copy CRC 8E8D434D Cannot be verified as accurate (confidence 14) [1E18F83A], AccurateRip returned [C231C5ED] (AR v2) Copy OK
Track 12
Filename D:\RIPs\12 - Short Circuit.wav
Pre-gap length 0:00:00.40
Peak level 100.0 % Extraction speed 14.3 X Track quality 100.0 % Test CRC 6E86EE0E Copy CRC 6E86EE0E Cannot be verified as accurate (confidence 14) [3518C908], AccurateRip returned [88B3AF69] (AR v2) Copy OK
Track 13
Filename D:\RIPs\13 - Face to Face.wav
Pre-gap length 0:00:01.67
Peak level 100.0 % Extraction speed 14.7 X Track quality 100.0 % Test CRC 4C191F29 Copy CRC 4C191F29 Cannot be verified as accurate (confidence 14) [3FF12863], AccurateRip returned [C9B68E03] (AR v2) Copy OK
Track 14
Filename D:\RIPs\14 - Too Long.wav
Pre-gap length 0:00:01.45
Peak level 100.0 % Extraction speed 16.1 X Track quality 100.0 % Test CRC 784CBBB4 Copy CRC 784CBBB4 Cannot be verified as accurate (confidence 13) [8DD0D800], AccurateRip returned [052EBC14] (AR v2) Copy OK
No tracks could be verified as accurateYou may have a different pressing from the one(s) in the database
No errors occurred
End of status report
---- CUETools DB Plugin V2.1.4
[CTDB TOCID: lu780RGykFN9mkdKzhHprs1ZXL0-] foundSubmit result: already submittedTrack | CTDB Status 1 | (28/29) Accurately ripped 2 | (28/29) Accurately ripped 3 | (28/29) Accurately ripped 4 | (28/29) Accurately ripped 5 | (28/29) Accurately ripped 6 | (28/29) Accurately ripped 7 | (28/29) Accurately ripped 8 | (28/29) Accurately ripped 9 | (28/29) Accurately ripped 10 | (28/29) Accurately ripped 11 | (28/29) Accurately ripped 12 | (28/29) Accurately ripped 13 | (28/29) Accurately ripped 14 | (26/29) Accurately ripped
==== Log checksum A143E3C04EAF81D167ABC116E28CC5DB9646FC6633BEE6588318A2EDE8F703EC ====

auCDtect Лог

-----------------------
DON'T MODIFY THIS FILE
-----------------------
PERFORMER: auCDtect Task Manager, ver. 1.6.0 RC1 build 1.6.0.1Copyright (c) 2008-2010 y-soft. All rights reservedhttp://y-soft.org
ANALYZER: auCDtect: CD records authenticity detector, version 0.8.2Copyright (c) 2004 Oleg Berngardt. All rights reserved.Copyright (c) 2004 Alexander Djourik. All rights reserved.
FILE: 09 - Something About Us.flac Size: 20939037 Hash: C1659B36B87D0D7AF420BB8C22B260D3 Accuracy: -m0 Conclusion: CDDA 100% Signature: 04E69EF16B20A1196057AA8E4C427F2A4DECE6EBFILE: 08 - High Life.flac Size: 26008807 Hash: 1188BB1E27C9A5306E29937EA8175F45 Accuracy: -m0 Conclusion: CDDA 100% Signature: 7833DFBA2F1E1B06CCE11373037BA7FE55ABDB53FILE: 07 - Superheroes.flac Size: 29985480 Hash: 559CBA1EC7121F4D110495DC27A2BB5D Accuracy: -m0 Conclusion: CDDA 99% Signature: C3202DB933AE1CF8AAFC2AFC61C275D8D3C48011FILE: 06 - Night Vision.flac Size: 9302579 Hash: E862A40BB1441C812ED233C71C9FF0C9 Accuracy: -m0 Conclusion: CDDA 100% Signature: 7FF9B80FC45FFE8C044F52156E1AC398346D73F8FILE: 05 - Crescendolls.flac Size: 25915604 Hash: C5BC2EE9BFEEE334EA62A864DE63800F Accuracy: -m0 Conclusion: CDDA 100% Signature: 4C789BB7F042A8F4FB32B406323113E159621887FILE: 04 - Harder, Better, Faster, Stronger.flac Size: 25383730 Hash: 79AAA80134122723B8E71AE7963EA7E7 Accuracy: -m0 Conclusion: CDDA 99% Signature: 91705A587EB6857E4DA26A9EE93F90CABFFE2D36FILE: 03 - Digital Love.flac Size: 35319923 Hash: 9E1EAA21CD5894DBF3EC3ED0DE696454 Accuracy: -m0 Conclusion: CDDA 100% Signature: 375C510770023E745845BF80D46FC0753652B601FILE: 02 - Aerodynamic.flac Size: 25044322 Hash: 8D2A96BA7004149AD0FE407EBDE257F1 Accuracy: -m0 Conclusion: CDDA 100% Signature: F4C02115CA831BFBF0A8F535B7B45680CD540B79FILE: 01 - One More Time.flac Size: 40871871 Hash: ADA2FCAC6B7B36EC58A3B62651207AE5 Accuracy: -m0 Conclusion: CDDA 100% Signature: FBA1501F30F207E5306723308693DE89C96A4E1FFILE: 14 - Too Long.flac Size: 72504820 Hash: D0F6CC0EA2CD12FB261EFE3D1CA7186E Accuracy: -m0 Conclusion: CDDA 100% Signature: 18BC33DC712A697D1CF83762B91EC81510CEBC2AFILE: 13 - Face to Face.flac Size: 26894097 Hash: 3960B098F8D002718963B71C67AB8D0F Accuracy: -m0 Conclusion: CDDA 100% Signature: C6CBB1E93388517FE34E4AEA261D1205A0C16912FILE: 12 - Short Circuit.flac Size: 21000837 Hash: B752C853D832558D1ABA20CD7D5810A1 Accuracy: -m0 Conclusion: CDDA 100% Signature: 92BB251A0AD7EE63A2F68B5E16B263BA05E42812FILE: 11 - Veridis Quo.flac Size: 33288817 Hash: 59DCE358A930047303B66D1DD408F387 Accuracy: -m0 Conclusion: CDDA 99% Signature: D9B2DD793A61766AE44138481E37929D668A781CFILE: 10 - Voyager.flac Size: 25691483 Hash: 95D35B64F68DA5A45ED43CB93CACC6D1 Accuracy: -m0 Conclusion: CDDA 99% Signature: F6C67A78BB79BE9F1BA4ABAD75ABBC8827083491

Audition Спектр

-Дополнительно:Аниме забираем тут. Приятного прослушивания
Other forum [Profile] [PM]
Display posts from previous:    
Reply to topic

The time now is: Today 06:21

All times are GMT + 3 Hours



You cannot post new topics in this forum
You cannot reply to topics in this forum
You cannot edit your posts in this forum
You cannot delete your posts in this forum
You cannot vote in polls in this forum
You cannot attach files in this forum
You cannot download files in this forum