Today is a free download without charge Download

Rammstein - Live Aus Moskau [2012 г., Rock, Industrial, HDCamRip 720p]

Reply to topic
 
Author
Message

cataman ®

Gender:

Longevity: 9 years 9 months

Posts: 196

Торрент-статистика

Post 10-Mar-2012 09:58

[Quote]

Rammstein - Live Aus Moskau
Год выпуска: 2012
Страна: Germany
Жанр:Rock, Industrial
Продолжительность: 01:55:23
Качество: HDCamRip 720p
Контейнер: MKV
Видео кодек: H.264
Аудио кодек: AC3
Видео: MPEG4 Video (H264), 1280x720, 6000 kbps, 50fps
Аудио: Dolby AC3, 256kbps, 48000Hz, stereo 01 - Intro
02 - Sonne
03 - Wollt ihr das Bett in Flammen sehen?
04 - Keine Lust
05 - Sehnsucht
06 - Asche zu Asche
07 - Feuer Frei
08 - Mutter
09 - Mein Teil
10 - Du riechst so gut
11 - Links 2 3 4
12 - Du hast
13 - Haifisch
14 - Bück dich
15 - Mann gegen Mann
16 - Ohne dich
17 - Mein Herz brennt
18 - Amerika
19 - Ich will
20 - Engel
21 - Pussy

Media Info

Код:
General
Unique ID : 241407221198187135913474773869873295734 (0xB59D56F0A920AEBFA639B54163737176)
Complete name : D:�2 Rammstein - Intro & Sonne (Live Aus Moskau 2012-02-10).mkv
Format : Matroska
Format version : Version 2
File size : 389 MiB
Duration : 8mn 40s
Overall bit rate : 6 273 Kbps
Encoded date : UTC 2012-02-26 22:58:22
Writing application : mkvmerge v5.3.0 ('I could have danced') built on Feb 9 2012 10:38:07
Writing library : libebml v1.2.3 + libmatroska v1.3.0
Video
ID : 1
Format : AVC
Format/Info : Advanced Video Codec
Format profile : [email protected]
Format settings, CABAC : Yes
Format settings, ReFrames : 4 frames
Codec ID : V_MPEG4/ISO/AVC
Duration : 8mn 40s
Bit rate : 6 000 Kbps
Width : 1 280 pixels
Height : 720 pixels
Display aspect ratio : 16:9
Frame rate : 50.000 fps
Color space : YUV
Chroma subsampling : 4:2:0
Bit depth : 8 bits
Scan type : Progressive
Bits/(Pixel*Frame) : 0.130
Stream size : 365 MiB (94%)
Writing library : x264 core 120 r2164 da19765
Encoding settings : cabac=1 / ref=3 / deblock=1:0:0 / analyse=0x3:0x113 / me=hex / subme=7 / psy=1 / psy_rd=1.00:0.00 / mixed_ref=1 / me_range=16 / chroma_me=1 / trellis=1 / 8x8dct=1 / cqm=0 / deadzone=21,11 / fast_pskip=1 / chroma_qp_offset=-2 / threads=3 / sliced_threads=0 / nr=0 / decimate=1 / interlaced=0 / bluray_compat=0 / constrained_intra=0 / bframes=3 / b_pyramid=2 / b_adapt=1 / b_bias=0 / direct=1 / weightb=1 / open_gop=0 / weightp=2 / keyint=500 / keyint_min=50 / scenecut=40 / intra_refresh=0 / rc_lookahead=40 / rc=2pass / mbtree=1 / bitrate=6000 / ratetol=1.0 / qcomp=0.60 / qpmin=0 / qpmax=69 / qpstep=4 / cplxblur=20.0 / qblur=0.5 / ip_ratio=1.40 / aq=1:1.00
Language : Russian
Default : Yes
Forced : No
Audio
ID : 2
Format : AC-3
Format/Info : Audio Coding 3
Mode extension : CM (complete main)
Codec ID : A_AC3
Duration : 8mn 40s
Bit rate mode : Constant
Bit rate : 256 Kbps
Channel(s) : 2 channels
Channel positions : Front: L R
Sampling rate : 48.0 KHz
Bit depth : 16 bits
Compression mode : Lossy
Stream size : 15.9 MiB (4%)
Language : German
Default : Yes
Forced : No

Скриншоты

             

_________________
Other forum [Profile] [PM]
Display posts from previous:    
Reply to topic

The time now is: Today 08:52

All times are GMT + 3 Hours



You cannot post new topics in this forum
You cannot reply to topics in this forum
You cannot edit your posts in this forum
You cannot delete your posts in this forum
You cannot vote in polls in this forum
You cannot attach files in this forum
You cannot download files in this forum