Today is a free download without charge Download

Пожары / Incendies (Дени Вильнёв / Denis Villeneuve) [2010, Канада, Франция, драма, детектив, военный, HDRip] MVO |Лицензия|

Reply to topic
 
Author
Message

Omen ®

Longevity: 8 years

Posts: 181087

Торрент-статистика

Post 06-Mar-2012 20:34

[Quote]

Пожары / Incendies (2010) HDRip
«The search began at the opening of their mother's will.»
-
Русское название: Пожары
Оригинальное название: Incendies
Год выпуска: 2010
Производство: Канада , Франция , TS Productions
Жанр: Драма, Детектив, Военный
Перевод: Двуголосый закадровый, любительский
Субтитры: Отсутствуют-Дата мировой премьеры: 4 сентября 2010
Дата российской премьеры: 15 декабря 2011, «RUSCICO»-Режиссер: Дени Вильнёв
Актеры: Лубна Азабаль, Мелисса Дезормо-Полен, Максим Годетт, Реми Жирар, Аллен Олтмэн, Мохамед Майд, Набил Савалха, Байа Белаль и др.-Описание фильма:
Лента повествует о путешествии близнецов — брата и сестры — на Ближний Восток, где они надеются найти своих родственников.


Продолжительность: 02:10:53
Качество видео: HDRip-Видеокодек: HDRip |Рип BDRip 720p|
Формат видео: AVI
Аудиокодек: AC3 5.1
Видео: 720x384 (1.875), 23.976 fps, XviD build 50 ~1782 kbps avg, 0.269 bit/pixel
Аудио: 48 kHz, AC3 Dolby Digital, 3/2 (L,C,R,l,r) + LFE ch, ~448.00 kbps avg |Многоголосый закадровый|

MediaInfo:

Код:
General
Complete name : Pozhary.2010.P.HDRip.ELEKTRI4KA.avi
Format : AVI
Format/Info : Audio Video Interleave
Format profile : OpenDML
File size : 2.05 GiB
Duration : 2h 10mn
Overall bit rate : 2 242 Kbps
Movie name : Pozhary.2010.P.HDRip
Director : ELEKTRO-VDR
Genre : Drama
Writing application : VirtualDubMod 1.5.4.1 (build 2178/release)
Original source form/Name : Movie
Copyright : ELEKTRI4KA
Video
ID : 0
Format : MPEG-4 Visual
Format profile : Advanced [email protected]
Format settings, BVOP : 2
Format settings, QPel : No
Format settings, GMC : No warppoints
Format settings, Matrix : Custom
Codec ID : XVID
Codec ID/Hint : XviD
Duration : 2h 10mn
Bit rate : 1 782 Kbps
Width : 720 pixels
Height : 384 pixels
Display aspect ratio : 1.875
Frame rate : 23.976 fps
Color space : YUV
Chroma subsampling : 4:2:0
Bit depth : 8 bits
Scan type : Progressive
Compression mode : Lossy
Bits/(Pixel*Frame) : 0.269
Stream size : 1.63 GiB (79%)
Writing library : XviD 1.2.0.dev47 (UTC 2006-11-01)
Audio
ID : 1
Format : AC-3
Format/Info : Audio Coding 3
Mode extension : CM (complete main)
Codec ID : 2000
Duration : 2h 10mn
Bit rate mode : Constant
Bit rate : 448 Kbps
Channel(s) : 6 channels
Channel positions : Front: L C R, Side: L R, LFE
Sampling rate : 48.0 KHz
Bit depth : 16 bits
Compression mode : Lossy
Delay relative to video : 800ms
Stream size : 419 MiB (20%)
Alignment : Split accross interleaves
Interleave, duration : 42 ms (1.00 video frame)
Interleave, preload duration : 500 ms
-Скриншоты:
       
       
Other forum [Profile] [PM]
Display posts from previous:    
Reply to topic

The time now is: Today 07:23

All times are GMT + 3 Hours



You cannot post new topics in this forum
You cannot reply to topics in this forum
You cannot edit your posts in this forum
You cannot delete your posts in this forum
You cannot vote in polls in this forum
You cannot attach files in this forum
You cannot download files in this forum