Today is a free download without charge Download

Схватка / The Grey (Джо Карнахан / Joe Carnahan) [2012, США, боевик, триллер, драма, приключения, DVD9] R5 «CP-Digital»

Reply to topic
 
Author
Message

voovaz ®

Gender:

Longevity: 9 years 5 months

Posts: 87

Торрент-статистика

Post 05-Mar-2012 23:45

[Quote]

-Схватка / The Grey-«Live and Die on This Day» -Страна: США
Студия: 1984 Private Defense Contractors, Liddell Entertainment, Scott Free Productions
Жанр: боевик, триллер, драма, приключения
Год выпуска: 2012
Мировая премьера: 26 января 2012
Российская премьера: 26 января 2012, «UPI»
Дата выхода DVD: 7 марта 2012, «CP-Digital»
Дата выхода Blu-Ray: 7 марта 2012, «CP-Digital»
Продолжительность: 01:52:18
Перевод: Профессиональный (дублированный) [Лицензия]
Cубтитры: нет
Оригинальная аудиодорожка: нет-Режиссер: Джо Карнахан / Joe Carnahan-В ролях: Лиам Нисон, Дермот Малруни, Фрэнк Грилло, Джеймс Бэдж, Дэйл Джо Андерсон, Нонсо Анози, Даллас Робертс, Лариса Стадничук, Бен Брэй, Джеймс Битонти-Описание: На Аляске потерпел крушение самолет, и оставшиеся в живых пассажиры оказались в плену безлюдной снежной пустыни, где только стая волков скрашивает пейзаж. Люди хотят выжить любой ценой, и теперь им предстоит смертельная схватка…-Бонусы: Смотрите на DVD, создатели и исполнители, фотогалерея- -Качество: DVD9 R5
Формат: DVD-Video
Видео кодек: MPEG2
Аудио кодек: AC3 + DTS
Видео: PAL 16:9 (720x576(0.576)) MPEG Video, 25,000 кадр/сек, 5968 Кбит/сек
Аудио #1: Russian (Dolby AC3, 6 ch) 448 Кбит/сек, 48,0 КГц
Аудио #2: Russian (DTS, 5 ch) 768 Кбит/сек, 48,0 КГц-
-

DVDInfo

Title:
Size: 6.35 Gb ( 6 656 822 KBytes ) - DVD-9
Enabled regions: 1, 2, 3, 4, 5, 6, 7, 8
VTS_01 :
Play Length: 00:00:05
Video: PAL 4:3 (720x576) VBR
Subtitles:
English
English
VTS_02 :
Play Length: 00:02:15
Video: PAL 16:9 (720x576) VBR, Auto Pan&Scan
Audio:
Not specified (Dolby AC3, 2 ch)
Not specified (Dolby AC3, 2 ch)
Not specified (Dolby AC3, 2 ch)
Subtitles:
Not specified
VTS_03 :
Play Length: 00:02:21
Video: PAL 16:9 (720x576) VBR, Auto Pan&Scan
Audio:
Not specified (Dolby AC3, 2 ch)
Not specified (Dolby AC3, 2 ch)
Not specified (Dolby AC3, 2 ch)
Subtitles:
Not specified
VTS_04 :
Play Length: 01:52:18
Video: PAL 16:9 (720x576) VBR, Auto Pan&Scan
Audio:
Russian (Dolby AC3, 6 ch)
Russian (DTS, 5 ch)
VTS_05 :
Play Length: 00:02:00
Video: PAL 16:9 (720x576) VBR, Auto Pan&Scan
Audio:
Not specified (Dolby AC3, 2 ch)
Subtitles:
Not specified
VTS_06 :
Play Length: 00:01:52
Video: PAL 16:9 (720x576) VBR, Auto Pan&Scan
Audio:
Not specified (Dolby AC3, 6 ch)
Subtitles:
Not specified
VTS_07 :
Play Length: 00:01:34
Video: PAL 16:9 (720x576) VBR, Auto Pan&Scan
Audio:
Not specified (Dolby AC3, 2 ch)
Subtitles:
Not specified
VTS_08 :
Play Length: 00:02:25
Video: PAL 16:9 (720x576) VBR, Auto Pan&Scan
Audio:
Not specified (Dolby AC3, 6 ch)
Subtitles:
Not specified
VTS_09 :
Play Length: 00:02:22
Video: PAL 16:9 (720x576) VBR, Auto Pan&Scan

MediaInfo

Общее
Полное имя : G:\Новинки 2012\Shvatka.2012.DVD9\VIDEO_TS\VTS_04_1.VOB
Формат : MPEG-PS
Размер файла : 1024 Мбайт
Продолжительность : 19 м.
Режим общего битрейта : Переменный
Общий поток : 7316 Кбит/сек
Видео
Идентификатор : 224 (0xE0)
Формат : MPEG Video
Версия формата : Version 2
Профиль формата : [email protected]
Параметр BVOP формата : Да
Параметр матрицы формата : По умолчанию
Параметр GOP формата : M=3, N=12
Продолжительность : 19 м.
Вид битрейта : Переменный
Битрейт : 5968 Кбит/сек
Максимальный битрейт : 9500 Кбит/сек
Ширина : 720 пикселей
Высота : 576 пикселей
Соотношение сторон : 16:9
Частота кадров : 25,000 кадров/сек
Стандарт вещания : PAL
Цветовое пространство : YUV
Субдискретизация насыщенности : 4:2:0
Битовая глубина : 8 бит
Тип развёртки : Прогрессивная
Метод сжатия : С потерями
Бит/(Пиксели*Кадры) : 0.576
Размер потока : 835 Мбайт (82%)
Аудио #1
Идентификатор : 189 (0xBD)-128 (0x80)
Формат : AC-3
Формат/Информация : Audio Coding 3
Расширение режима : CM (complete main)
Режим смешивания : DVD-Video
Продолжительность : 19 м.
Вид битрейта : Постоянный
Битрейт : 448 Кбит/сек
Каналы : 6 каналов
Расположение каналов : Front: L C R, Side: L R, LFE
Частота : 48,0 КГц
Битовая глубина : 16 бит
Метод сжатия : С потерями
Размер потока : 62,7 Мбайт (6%)
Аудио #2
Идентификатор : 189 (0xBD)-137 (0x89)
Формат : DTS
Формат/Информация : Digital Theater Systems
Режим смешивания : DVD-Video
Продолжительность : 19 м.
Вид битрейта : Постоянный
Битрейт : 755 Кбит/сек
Каналы : 6 каналов
Расположение каналов : Front: L C R, Side: L R, LFE
Частота : 48,0 КГц
Битовая глубина : 16 бит
Метод сжатия : С потерями
Размер потока : 106 Мбайт (10%)

Скриншоты меню

       

Скриншоты фильма

               

Скриншоты доп. материалов

           
-
-
Other forum [Profile] [PM]

sema1589

Longevity: 9 years 1 month

Posts: 1

Торрент-статистика

Post 06-Mar-2012 09:21 (after 9 hours)

[Quote]

спасибо долго ждал фильм теперь осталось скачать
Other forum [Profile] [PM]
Display posts from previous:    
Reply to topic

The time now is: Today 10:43

All times are GMT + 3 Hours



You cannot post new topics in this forum
You cannot reply to topics in this forum
You cannot edit your posts in this forum
You cannot delete your posts in this forum
You cannot vote in polls in this forum
You cannot attach files in this forum
You cannot download files in this forum