Today is a free download without charge Download

Схватка / The Grey (Джо Карнахан) [2012 г., боевик, триллер, драма, приключения, HDRip]

Reply to topic
 
Author
Message

Baracuda ®

Gender:

Longevity: 9 years 7 months

Posts: 364

Location: Киев

Торрент-статистика

Post 05-Mar-2012 15:14

[Quote]


Схватка / The Grey
-- Оригинальное название: The Grey
Год выпуска: 2012
Страна: США, Universal pictures-Жанр: боевик, триллер, драма, приключения
Продолжительность: 117 мин. / 01:57
Озвучивание: Дублированное [Лицензия]-Режиссер: Джо Карнахан
Продюссер: Джо Карнахан, Ридли Скотт, Тони Скотт
Сценарий: Йен Джефферс, Джо Карнахан-Бюджет: $25 000 000
Премьера в мире: 26 января 2012-В ролях: Лиам Нисон, Фрэнк Грилло, Дермот Малруни, Даллас Робертс, Джо Андерсон, Нонсо Анози, Джеймс Бэдж Дэйл, Бен Брэй, Энн Опеншоу, Питер Гиргес
Описание: На Аляске потерпел крушение самолет, и оставшиеся в живых пассажиры оказались в плену безлюдной снежной пустыни, где только стая волков скрашивает пейзаж. Люди хотят выжить любой ценой, и теперь им предстоит смертельная схватка...

R - Лицам до 17 лет обязательно присутствие взрослого
Качество: HDRip (исходник неизвестен)
Формат: AVI-Видео кодек: DivX
Аудио кодек: MP3-Видео: DivX 5, 640x272, 29.970 fps, 717 ~ kb/s
Аудио: MP3, 48000 Hz, 2 канала, 128 kb/s-

MediaInfo

Код:
Полное имя                       : Shvatka.2011.D.HDRip.700Mb.avi
Формат                           : AVI
Формат/Информация                : Audio Video Interleave
Размер файла                     : 705 Мбайт
Продолжительность                : 1 ч. 57 м.
Общий поток                      : 841 Кбит/сек
Программа кодирования            : VirtualDubMod 1.5.10.3 | www.virtualdub-fr.org || (build 2550/release)
Библиотека кодирования           : VirtualDubMod build 2550/release
Видео
Идентификатор                    : 0
Формат                           : MPEG-4 Visual
Профиль формата                  : Advanced [email protected]
Параметр BVOP формата            : 2
Параметр QPel формата            : Нет
Параметр GMC формата             : Без точки перехода
Параметр матрицы формата         : Выборочная
Идентификатор кодека             : DX50
Идентификатор кодека/Подсказка   : DivX 5
Продолжительность                : 1 ч. 57 м.
Битрейт                          : 717 Кбит/сек
Ширина                           : 640 пикселей
Высота                           : 272 пикселя
Соотношение сторон               : 2,35:1
Частота кадров                   : 29,970 кадров/сек
Цветовое пространство            : YUV
Субдискретизация насыщенности    : 4:2:0
Битовая глубина                  : 8 бит
Тип развёртки                    : Прогрессивная
Метод сжатия                     : С потерями
Бит/(Пиксели*Кадры)              : 0.138
Размер потока                    : 601 Мбайт (85%)
Библиотека кодирования           : XviD 64
Аудио
Идентификатор                    : 1
Формат                           : MPEG Audio
Версия формата                   : Version 1
Профиль формата                  : Layer 3
Идентификатор кодека             : 55
Идентификатор кодека/Подсказка   : MP3
Продолжительность                : 1 ч. 57 м.
Вид битрейта                     : Постоянный
Битрейт                          : 112 Кбит/сек
Каналы                           : 2 канала
Частота                          : 44,1 КГц
Метод сжатия                     : С потерями
Размер потока                    : 93,8 Мбайт (13%)
Выравнивание                     : Разделение по промежуткам
Продолжительность промежутка     : 33  мс. (1,00 видеокадр)
Время предзагрузки промежутка    : 500  мс.
Библиотека кодирования           : LAME3.99
Настройки программы              : -m s -V 4 -q 2 -lowpass 15.6 -b 112
-

Скриншоты

     
-

_________________


Last edited by Baracuda on 2012-03-05 17:08; edited 2 times in total
Other forum [Profile] [PM]
Display posts from previous:    
Reply to topic

The time now is: Today 04:38

All times are GMT + 3 Hours



You cannot post new topics in this forum
You cannot reply to topics in this forum
You cannot edit your posts in this forum
You cannot delete your posts in this forum
You cannot vote in polls in this forum
You cannot attach files in this forum
You cannot download files in this forum