Сегодня идет свободное скачивание без начисления Download

Формула 1 / Formula 1 (Весь сезон 2014) [HDTVRip-AVC 720p 50fps, RUS]

Ответить на тему
 
Автор
Сообщение

SmartSoft ®

Пол:

Стаж: 4 года 8 месяцев

Сообщений: 414

Торрент-статистика

Пост 03-Фев-2015 23:09

[Цитировать]

Формула 1 / Formula 1 [HDTVRip-AVC 720p 50fps, RUS]-
Русское название: Формула 1
Оригинальное название: Formula 1
Телекомпания: SkySports F1HD
Год выпуска: 2014
Жанр: Спорт
Официальный сайт: www.formula1.com
Язык комментариев: Русский (Алексей Попов и Наталья Фабричнова)
Продолжительность:
квалификация ~ 01:30:00 (Live-трансляция, включает пресс-конференцию. Русский комментарий может не соответствовать изображению в паузах между сессиями) гонка ~ 02:30:00 (Live-трансляция)
Описание:
Весь сезон Формулы 1 2014 года. Квалификация + Гонка.
Доп. информация:
Исходник: HDTVRemux [TS/H.264/MP2(AC3), 1920х1080i (16:9), 25.000 fps]
Рип: деинтерлейсер [25i -> 50p]: QTGMC(Preset="Slow")
Качество видео: HDTVRip
Формат: MKV
Видеокодек: H.264
Битрейт видео: ~7000 Kbps
Размер кадра:1280x720p (16:9); 50 fps
Аудиокодек: AC3
Битрейт аудио: 192 kbps

Состав участников:

Состав участников:
Red Bull Racing: Себастьян Феттель - Даниэль Риккардо
Mercedes AMG Petronas Formula 1 Team: Льюис Хэмилтон - Нико Росберг
Scuderia Ferrari: Фернандо Алонсо - Кими Райкконен
Lotus F1 Team: Роман Грожан - Пастор Мальдонадо
Vodafone McLaren Mercedes: Дженсон Баттон - Кевин Магнуссен
Sahara Force India F1 Team: Нико Хюлкенберг - Серхио Перес
Sauber F1 Team: Адриан Сутил - Эстебан Гутьеррес
Scuderia Toro Rosso: Жан-Эрик Вернь - Даниил Квят
Williams F1 Team: Фелипе Масса - Валттери Боттас
Marussia F1 Team: Жюль Бьянки - Макс Чилтон
Caterham F1 Team: Камуи Кобаяши - Маркус Эриксон

MediaInfo

Код:
H:\Formula 1\Formula 1 2014 Season\06 Гран-при Монако\Монако (гонка) 50fps.mkv
  General
    Unique ID : 205169887784208338485891795836196669189 (0x9A5A48766CB967428C48E8D9AC60C705)
    Complete name : H:\Formula 1\Formula 1 2014 Season\06 Гран-при Монако\Монако (гонка) 50fps.mkv
    Format : Matroska
    Format version : Version 4 / Version 2
    File size : 7.96 GiB
    Duration : 2h 40mn
    Overall bit rate : 7 100 Kbps
    Encoded date : UTC 2014-05-30 20:02:52
    Writing application : mkvmerge v6.9.1 ('Blue Panther') 64bit built on Apr 18 2014 18:23:38
    Writing library : libebml v1.3.0 + libmatroska v1.4.1
  Video #1
    ID : 1
    Format : AVC
    Format/Info : Advanced Video Codec
    Format profile : [url=mailto:[email protected]][email protected][/url]
    Format settings, CABAC : Yes
    Format settings, ReFrames : 4 frames
    Codec ID : V_MPEG4/ISO/AVC
    Duration : 2h 40mn
    Bit rate : 6 767 Kbps
    Width : 1 280 pixels
    Height : 720 pixels
    Display aspect ratio : 16:9
    Frame rate mode : Constant
    Frame rate : 50.000 fps
    Color space : YUV
    Chroma subsampling : 4:2:0
    Bit depth : 8 bits
    Scan type : Progressive
    Bits/(Pixel*Frame) : 0.147
    Stream size : 7.59 GiB (95%)
    Writing library : x264 core 133 r2334 a3ac64b
    Encoding settings : cabac=1 / ref=3 / deblock=1:0:0 / analyse=0x3:0x113 / me=umh / subme=9 / psy=1 / psy_rd=1.00:0.00 / mixed_ref=1 / me_range=24 / chroma_me=1 / trellis=1 / 8x8dct=1 / cqm=0 / deadzone=21,11 / fast_pskip=1 / chroma_qp_offset=-2 / threads=18 / lookahead_threads=1 / sliced_threads=0 / nr=0 / decimate=1 / interlaced=0 / bluray_compat=0 / constrained_intra=0 / bframes=3 / b_pyramid=2 / b_adapt=1 / b_bias=0 / direct=1 / weightb=1 / open_gop=0 / weightp=2 / keyint=100 / keyint_min=10 / scenecut=40 / intra_refresh=0 / rc_lookahead=40 / rc=crf / mbtree=1 / crf=21.0 / qcomp=0.60 / qpmin=0 / qpmax=69 / qpstep=4 / vbv_maxrate=20000 / vbv_bufsize=25000 / crf_max=0.0 / nal_hrd=none / ip_ratio=1.40 / aq=1:1.00
    Language : English
    Default : Yes
    Forced : No
  Audio #2
    ID : 2
    Format : AC-3
    Format/Info : Audio Coding 3
    Mode extension : CM (complete main)
    Format settings, Endianness : Big
    Codec ID : A_AC3
    Duration : 2h 40mn
    Bit rate mode : Constant
    Bit rate : 192 Kbps
    Channel count : 2 channels
    Channel positions : Front: L R
    Sampling rate : 48.0 KHz
    Bit depth : 16 bits
    Compression mode : Lossy
    Delay relative to video : 150ms
    Stream size : 220 MiB (3%)
    Title : Спорт1
    Language : Russian
    Default : Yes
    Forced : No

Скриншоты:

     

_________________
Подпись отключена за нарушение правил форума
Вне форума [Профиль] [ЛС]

Dracula

Стаж: 5 лет 1 месяц

Сообщений: 12209

Торрент-статистика

Пост 03-Фев-2015 23:15 (спустя 5 минут)

Топик был перенесен из форума Другие виды спорта в форум Авто и мото спорт


kogesan
 
Похожие темы
Форум Тема Автор Торрент Отв. Посл. сообщение
./templates/default/images/folder_dl.gif Обучающее видео Джефф Уокер - Формула Запуска Продуктов 4.0 (2013) / Jeff Walker Product Launch Formula 4 [2013, бизнес, DVDRip, RUS/ENG] (Видеоурок) Omen
1 | 0

12 | 17046

540

2015-03-24 03:12
Wedzmin Последнее
./templates/default/images/folder_dl.gif Обучающее видео Алекс Мэй | Формула струйных оргазмов 2.0 (2015) HDRip [H.264/1080p] Omen
1 | 0

0 | 1663

73

2016-03-24 00:01
Omen Последнее
Показать сообщения:    
Ответить на тему

Текущее время: Сегодня 16:44

Часовой пояс: GMT + 3



Вы не можете начинать темы
Вы не можете отвечать на сообщения
Вы не можете редактировать свои сообщения
Вы не можете удалять свои сообщения
Вы не можете голосовать в опросах
Вы не можете прикреплять файлы к сообщениям
Вы не можете скачивать файлы