Today is a free download without charge Download

Как щенок учился плавать (1984) DVDRip

Reply to topic
 
Author
Message

Varius ®

Gender:

Longevity: 10 years

Posts: 2428

Location: Hell

Торрент-статистика

Post 02-Feb-2015 05:21

[Quote]

Как щенок учился плавать (1984) DVDRip- Производство: СССР, Союзмультфильм
Жанр: Детский
Режиссер: Владимир Данилевич
Роли озвучивают: Ольга Громова, Мария Виноградова, Евгений Весник, Георгий ВицинОписание фильма:
Мультипликационный фильм о маленьком глупом щенке, который не умеет плавать и не решается войти в воду. Щука и рак учат его плавать при помощи плавников и хвоста, лебедь — с помощью перепончатых лап. Когда же щенок, наконец, поплыл, то это был его собственный индивидуальный стиль по-собачьи.

Продолжительность: 00:06:56
Качество видео: DVDRip
Видеокодек: Xvid
Битрейт видео: ~6811 kb/s
Размер кадра: 720x544
Аудиокодек: AC3, 2 ch
Битрейт аудио: 224 kb/s

Mediainfo:

Код:
Видео
Идентификатор                    : 0
Формат                           : MPEG-4 Visual
Профиль формата                  : Advanced [email protected]
Параметр BVOP формата            : Нет
Параметр QPel формата            : Нет
Параметр GMC формата             : Без точки перехода
Параметр матрицы формата         : Выборочная
Идентификатор кодека             : XVID
Идентификатор кодека/Подсказка   : XviD
Продолжительность                : 6 м. 56 с.
Битрейт                          : 6811 Кбит/сек
Ширина                           : 720 пикс.
Высота                           : 544 пикс.
Соотношение сторон               : 4:3
Частота кадров                   : 25,000 кадр/сек
Цветовое пространство            : YUV
Подвыборка цветности             : 4:2:0
Битовая глубина                  : 8 бит
Тип развёртки                    : Прогрессивная
Метод сжатия                     : С потерями
Бит/(Пиксели*Кадры)              : 0.696
Размер потока                    : 339 Мбайт (97%)
Библиотека кодирования           : XviD 1.2.0.dev47 (UTC 2006-11-01)
Аудио
Идентификатор                    : 1
Формат                           : AC-3
Формат/Информация                : Audio Coding 3
Расширение режима                : CM (complete main)
Идентификатор кодека             : 2000
Продолжительность                : 6 м. 56 с.
Вид битрейта                     : Постоянный
Битрейт                          : 224 Кбит/сек
Канал(ы)                         : 2 канала(ов)
Расположение каналов             : Front: L R
Частота                          : 48,0 КГц
Битовая глубина                  : 16 бит
Метод сжатия                     : С потерями
Размер потока                    : 11,1 Мбайт (3%)
Выравнивание                     : Разделение по промежуткам
Продолжительность промежутка     : 96  мс. (2,40 видеокадров)
Время предзагрузки промежутка    : 96 ms
Скриншоты:
       

_________________

Создавая "Новую папку", не считайте себя Создателем - это право Вам дано Админом


Other forum [Profile] [PM]
Display posts from previous:    
Reply to topic

The time now is: Today 02:11

All times are GMT + 3 Hours



You cannot post new topics in this forum
You cannot reply to topics in this forum
You cannot edit your posts in this forum
You cannot delete your posts in this forum
You cannot vote in polls in this forum
You cannot attach files in this forum
You cannot download files in this forum