Today is a free download without charge Download

Девушка с татуировкой дракона / The Girl with the Dragon Tattoo (Дэвид Финчер) [2011 г., триллер, драма, криминал, детектив, BDRip1080p]

Reply to topic
 
Author
Message

sassad ®

Gender:

Longevity: 10 years

Posts: 1214

Location: Галич

Торрент-статистика

Post 03-Mar-2012 14:10

[Quote]

Девушка с татуировкой дракона / The Girl with the Dragon Tattoo- Год выпуска: 2011
Страна: США, Германия, Швеция, Великобритания
Жанр: триллер, драма, криминал, детектив
Продолжительность: 160 мин. / 02:40
Перевод: Профессиональный(дублированный)-Режиссер: Дэвид Финчер
Продюссер: Чен Чаффин, Скотт Рудин, Сорен Стэмозе
Сценарий: Стивен Зеллиан, Стиг Ларссон
Бюджет: $90 000 000
Премьера в мире: 12 декабря 2011
R - Лицам до 17 лет обязательно присутствие взрослого
8.10 (74 066)

В ролях: Дэниэл Крэйг, Руни Мара, Кристофер Пламмер, Стеллан Скарсгард, Стивен Беркофф, Робин Райт, Йорик ван Вагенинген, Джоэли Ричардсон, Джеральдин Джеймс, Горан Вишнич-Описание: Сорок лет назад Харриет Вангер бесследно пропала на острове, принадлежащем могущественному клану Вангер. Ее тело так и не было найдено, но ее дядя убежден, что это убийство и что убийца является членом его собственной, тесно сплоченной и неблагополучной семьи. Он нанимает опального журналиста Микаэля Блумквиста и татуированную хакершу Лисбет Саландер для проведения расследования.-Качество: BDRip1080p
Формат: MKV
Видео кодек: MKV
Аудио кодек: AC3
Видео: MPEG-4, 8381 Кбит/с, 1920x800
Аудио: Русский (AC3, 6 ch, 384 Кбит/с), английский (DTS, 6 ch, 1510 Кбит/с)

-

M.I

Код:
General
Format : Matroska
File size : 11.4 GiB
Duration : 2h 38mn
Overall bit rate : 10.3 Mbps
Encoded date : UTC 2012-03-02 12:59:18
Writing application : mkvmerge v5.3.0 ('I could have danced') built on Feb 9 2012 10:38:07
Writing library : libebml v1.2.3 + libmatroska v1.3.0
Video
ID : 1
Format : AVC
Format/Info : Advanced Video Codec
Format profile : [email protected]
Format settings, CABAC : Yes
Format settings, ReFrames : 5 frames
Format settings, GOP : M=2, N=48
Codec ID : V_MPEG4/ISO/AVC
Duration : 2h 38mn
Bit rate : 8 381 Kbps
Width : 1 920 pixels
Height : 800 pixels
Display aspect ratio : 2.40:1
Frame rate : 23.976 fps
Color space : YUV
Chroma subsampling : 4:2:0
Bit depth : 8 bits
Scan type : Progressive
Bits/(Pixel*Frame) : 0.228
Stream size : 9.03 GiB (80%)
Writing library : x264 core 120 r2164 da19765
Encoding settings : cabac=1 / ref=5 / deblock=1:0:0 / analyse=0x3:0x133 / me=umh / subme=7 / psy=1 / psy_rd=1.00:0.00 / mixed_ref=1 / me_range=16 / chroma_me=1 / trellis=1 / 8x8dct=1 / cqm=0 / deadzone=21,11 / fast_pskip=0 / chroma_qp_offset=-2 / threads=12 / sliced_threads=0 / nr=0 / decimate=1 / interlaced=0 / bluray_compat=0 / constrained_intra=0 / bframes=3 / b_pyramid=2 / b_adapt=1 / b_bias=0 / direct=1 / weightb=1 / open_gop=0 / weightp=2 / keyint=250 / keyint_min=23 / scenecut=40 / intra_refresh=0 / rc_lookahead=40 / rc=2pass / mbtree=1 / bitrate=8381 / ratetol=1.0 / qcomp=0.60 / qpmin=0 / qpmax=69 / qpstep=4 / cplxblur=20.0 / qblur=0.5 / ip_ratio=1.40 / aq=1:1.00
Language : English
Audio #1
ID : 2
Format : AC-3
Format/Info : Audio Coding 3
Mode extension : CM (complete main)
Codec ID : A_AC3
Duration : 2h 38mn
Bit rate mode : Constant
Bit rate : 384 Kbps
Channel(s) : 6 channels
Channel positions : Front: L C R, Side: L R, LFE
Sampling rate : 48.0 KHz
Bit depth : 16 bits
Compression mode : Lossy
Stream size : 434 MiB (4%)
Language : Russian
Audio #2
ID : 3
Format : DTS
Format/Info : Digital Theater Systems
Codec ID : A_DTS
Duration : 2h 38mn
Bit rate mode : Constant
Bit rate : 1 510 Kbps
Channel(s) : 6 channels
Channel positions : Front: L C R, Side: L R, LFE
Sampling rate : 48.0 KHz
Bit depth : 24 bits
Compression mode : Lossy
Stream size : 1.67 GiB (15%)
Language : English
Text #1
ID : 4
Format : UTF-8
Codec ID : S_TEXT/UTF8
Codec ID/Info : UTF-8 Plain Text
Language : English
Text #2
ID : 5
Format : UTF-8
Codec ID : S_TEXT/UTF8
Codec ID/Info : UTF-8 Plain Text
Language : English
Menu
00:00:00.000 : en:00:00:00.000
00:09:53.885 : en:00:09:53.885
00:22:05.699 : en:00:22:05.699
00:28:24.786 : en:00:28:24.786
00:38:09.746 : en:00:38:09.746
00:48:00.920 : en:00:48:00.920
00:55:07.346 : en:00:55:07.346
01:01:06.204 : en:01:01:06.204
01:09:22.033 : en:01:09:22.033
01:16:12.860 : en:01:16:12.860
01:23:27.711 : en:01:23:27.711
01:32:49.731 : en:01:32:49.731
01:41:35.006 : en:01:41:35.006
01:58:54.210 : en:01:58:54.210
02:14:42.533 : en:02:14:42.533
02:23:15.837 : en:02:23:15.837
-

Скриншоты

       
-

_________________
Other forum [Profile] [PM]
Display posts from previous:    
Reply to topic

The time now is: Today 11:04

All times are GMT + 3 Hours



You cannot post new topics in this forum
You cannot reply to topics in this forum
You cannot edit your posts in this forum
You cannot delete your posts in this forum
You cannot vote in polls in this forum
You cannot attach files in this forum
You cannot download files in this forum