Today is a free download without charge Download

9 1/2 недель / Девять с половиной недель / Nine 1/2 Weeks (Эдриэн Лайн / Adrian Lyne) [1986, США, мелодрама, эротика, BDRip 720p] Dub Sub Rus + Original Eng

Reply to topic
 
Author
Message

Delia ®

Gender:

Longevity: 10 years

Posts: 1821

Торрент-статистика

Post 02-Mar-2012 14:34

[Quote]

9 1/2 недель / Девять с половиной недельNine 1/2 Weeks Страна: США
Жанр: мелодрама, эротика
Год выпуска: 1986
Продолжительность: 1:56:51
Перевод: Профессиональный (дублированный)
Cубтитры: русские, английские , французские
Оригинальная аудиодорожка: английский
Режиссер: Эдриэн Лайн / Adrian Lyne
В ролях: Микки Рурк, Ким Бэсинджер, Дэвид Маргулис, Кристин Барански, Карен Янг, Родерик Кук, Джастин Джонстон, Ким Чэн, Майкл П. Моран, Олек Крупа, Джулиан Бек, Джон П. Коннолли, Дэн Лориа, Кори Паркер, Эллен Барбер, Лютер Ракер, Джой Сильвейра, Сара Керночан
Описание: Когда Элизабет встречает Джона, ее уравновешенность улетучивается в одно мгновение. Изощренный соблазнитель втягивает ее в эффектную любовную игру, которая заставляет ее отказаться от прежних жизненных принципов. Их свидания - это утоление голода, это мед, стекающий по ее груди, это клубника, которую он губами вынимает у нее изо рта.
Их постель - это металлическая лестница в подворотне, где они занимаются любовью. И сама их любовь - это дождь, льющийся из разверзшихся небес, это землетрясение, это всесокрушающий ураган.
Их любовь - это трагическая невозможность жить вместе, потому что вместо вопроса «что я могу сделать для тебя?» оба задаются вопросом «на что ты готов пойти ради меня?»...

Тип релиза: BDRip 720p (исходник 1080p Blu-ray HDChina )
Контейнер: MKV
Видео: MPEG-4 AVC Video , 9850 kbps , 1280*720 , 23.976 fps (16:9) High Profile 4.1
Аудио: Russian , 5.1 ,AC3, 48 kHz , 448 kbps (MVO)
Аудио: Russian:48 kHz, AC3, 2.0 (L,R,l) ~192.00 kbps avg (DUB)
Аудио: Russian:48 kHz, AC3, 2.0 (L,R,l) ~192.00 kbps avg (VO - А. Михалев)
Аудио: Russian:48 kHz, AC3, 2.0 (L,R,l) ~192.00 kbps avg (VO - В. Дохалов)
Аудио: Russian:48 kHz, AC3, 2.0 (L,R,l) ~192.00 kbps avg (VO - Л. Володарский)
Аудио:Russian: 48 kHz, DTS, 3/2 (L,C,R,l,r) + LFE ch, ~1510.00 kbps avg (VO- Ю.Живов)
Аудио : English 1510 Кбит/сек, 48,0 КГц, 24 бит, 6 каналов, Front: L C R, Side: L R, LFE, DTS
Формат субтитров: softsub (SRT)

MediaInfo

Код:
Общее
Уникальный идентификатор         : 182143163229197824518125993939244234369 (0x89077F49FF31F67A9B7778B06CD93681)
Полное имя                       : E:\торрент\Nine 12 Weeks(1986)BDRip.mkv
Формат                           : Matroska
Версия формата                   : Version 2
Размер файла                     : 11,5 Гбайт
Продолжительность                : 1 ч. 56 м.
Общий поток                      : 14,1 Мбит/сек
Дата кодирования                 : UTC 2012-03-02 06:00:43
Программа кодирования            : mkvmerge v5.3.0 ('I could have danced') built on Feb  9 2012 10:38:07
Библиотека кодирования           : libebml v1.2.3 + libmatroska v1.3.0
Видео
Идентификатор                    : 1
Формат                           : AVC
Формат/Информация                : Advanced Video Codec
Профиль формата                  : [email protected]
Параметр CABAC формата           : Да
Параметр ReFrames формата        : 8 кадров
Идентификатор кодека             : V_MPEG4/ISO/AVC
Продолжительность                : 1 ч. 56 м.
Битрейт                          : 9850 Кбит/сек
Ширина                           : 1280 пикселей
Высота                           : 720 пикселей
Соотношение сторон               : 16:9
Частота кадров                   : 23,976 кадра/сек
Цветовое пространство            : YUV
Субдискретизация насыщенности    : 4:2:0
Битовая глубина                  : 8 бит
Тип развёртки                    : Прогрессивная
Бит/(Пиксели*Кадры)              : 0.446
Размер потока                    : 7,81 Гбайт (68%)
Библиотека кодирования           : x264 core 120 r2164 da19765
Настройки программы              : cabac=1 / ref=8 / deblock=1:-3:-3 / analyse=0x3:0x113 / me=esa / subme=11 / psy=1 / psy_rd=1.15:0.00 / mixed_ref=1 / me_range=32 / chroma_me=1 / trellis=2 / 8x8dct=1 / cqm=0 / deadzone=21,11 / fast_pskip=0 / chroma_qp_offset=-2 / threads=6 / sliced_threads=0 / nr=0 / decimate=1 / interlaced=0 / bluray_compat=0 / constrained_intra=0 / bframes=7 / b_pyramid=2 / b_adapt=2 / b_bias=0 / direct=3 / weightb=1 / open_gop=0 / weightp=2 / keyint=230 / keyint_min=22 / scenecut=40 / intra_refresh=0 / rc_lookahead=80 / rc=2pass / mbtree=1 / bitrate=9850 / ratetol=1.0 / qcomp=0.80 / qpmin=0 / qpmax=69 / qpstep=4 / cplxblur=20.0 / qblur=0.5 / ip_ratio=1.40 / aq=2:0.90
Язык                             : English
Аудио #1
Идентификатор                    : 2
Формат                           : AC-3
Формат/Информация                : Audio Coding 3
Профиль формата                  : Dolby Digital
Расширение режима                : CM (complete main)
Идентификатор кодека             : A_AC3
Продолжительность                : 1 ч. 56 м.
Вид битрейта                     : Постоянный
Битрейт                          : 192 Кбит/сек
Каналы                           : 2 канала
Расположение каналов             : Front: L R
Частота                          : 48,0 КГц
Битовая глубина                  : 16 бит
Метод сжатия                     : С потерями
Размер потока                    : 160 Мбайт (1%)
Заголовок                        : DUB
Язык                             : Russian
Аудио #2
Идентификатор                    : 3
Формат                           : AC-3
Формат/Информация                : Audio Coding 3
Расширение режима                : CM (complete main)
Идентификатор кодека             : A_AC3
Продолжительность                : 1 ч. 56 м.
Вид битрейта                     : Постоянный
Битрейт                          : 448 Кбит/сек
Каналы                           : 6 каналов
Расположение каналов             : Front: L C R, Side: L R, LFE
Частота                          : 48,0 КГц
Битовая глубина                  : 16 бит
Метод сжатия                     : С потерями
Размер потока                    : 374 Мбайт (3%)
Заголовок                        : (MVO
Язык                             : Russian
Аудио #3
Идентификатор                    : 4
Формат                           : AC-3
Формат/Информация                : Audio Coding 3
Профиль формата                  : Dolby Digital
Расширение режима                : CM (complete main)
Идентификатор кодека             : A_AC3
Продолжительность                : 1 ч. 56 м.
Вид битрейта                     : Постоянный
Битрейт                          : 192 Кбит/сек
Каналы                           : 2 канала
Расположение каналов             : Front: L R
Частота                          : 48,0 КГц
Битовая глубина                  : 16 бит
Метод сжатия                     : С потерями
Размер потока                    : 160 Мбайт (1%)
Заголовок                        : VO - А. Михалев
Язык                             : Russian
Аудио #4
Идентификатор                    : 5
Формат                           : AC-3
Формат/Информация                : Audio Coding 3
Профиль формата                  : Dolby Digital
Расширение режима                : CM (complete main)
Идентификатор кодека             : A_AC3
Продолжительность                : 1 ч. 56 м.
Вид битрейта                     : Постоянный
Битрейт                          : 192 Кбит/сек
Каналы                           : 2 канала
Расположение каналов             : Front: L R
Частота                          : 48,0 КГц
Битовая глубина                  : 16 бит
Метод сжатия                     : С потерями
Размер потока                    : 160 Мбайт (1%)
Заголовок                        : VO - В. Дохалов
Язык                             : Russian
Аудио #5
Идентификатор                    : 6
Формат                           : AC-3
Формат/Информация                : Audio Coding 3
Профиль формата                  : Dolby Digital
Расширение режима                : CM (complete main)
Идентификатор кодека             : A_AC3
Продолжительность                : 1 ч. 56 м.
Вид битрейта                     : Постоянный
Битрейт                          : 192 Кбит/сек
Каналы                           : 2 канала
Расположение каналов             : Front: L R
Частота                          : 48,0 КГц
Битовая глубина                  : 16 бит
Метод сжатия                     : С потерями
Размер потока                    : 160 Мбайт (1%)
Заголовок                        : VO - Л. Володарский
Язык                             : Russian
Аудио #6
Идентификатор                    : 7
Формат                           : DTS
Формат/Информация                : Digital Theater Systems
Идентификатор кодека             : A_DTS
Продолжительность                : 1 ч. 56 м.
Вид битрейта                     : Постоянный
Битрейт                          : 1510 Кбит/сек
Каналы                           : 6 каналов
Расположение каналов             : Front: L C R, Side: L R, LFE
Частота                          : 48,0 КГц
Битовая глубина                  : 24 бит
Метод сжатия                     : С потерями
Размер потока                    : 1,23 Гбайт (11%)
Заголовок                        : VO -Ю.Живов
Язык                             : Russian
Аудио #7
Идентификатор                    : 8
Формат                           : DTS
Формат/Информация                : Digital Theater Systems
Идентификатор кодека             : A_DTS
Продолжительность                : 1 ч. 56 м.
Вид битрейта                     : Постоянный
Битрейт                          : 1510 Кбит/сек
Каналы                           : 6 каналов
Расположение каналов             : Front: L C R, Side: L R, LFE
Частота                          : 48,0 КГц
Битовая глубина                  : 24 бит
Метод сжатия                     : С потерями
Размер потока                    : 1,23 Гбайт (11%)
Язык                             : English
Текст #1
Идентификатор                    : 9
Формат                           : UTF-8
Идентификатор кодека             : S_TEXT/UTF8
Идентификатор кодека/Информация  : UTF-8 Plain Text
Язык                             : Russian
Текст #2
Идентификатор                    : 10
Формат                           : UTF-8
Идентификатор кодека             : S_TEXT/UTF8
Идентификатор кодека/Информация  : UTF-8 Plain Text
Язык                             : English
Текст #3
Идентификатор                    : 11
Формат                           : UTF-8
Идентификатор кодека             : S_TEXT/UTF8
Идентификатор кодека/Информация  : UTF-8 Plain Text
Язык                             : French
Меню
00:00:00.000                     : en:Chapter 01
00:04:59.257                     : en:Chapter 02
00:15:27.509                     : en:Chapter 03
00:19:20.659                     : en:Chapter 04
00:29:24.429                     : en:Chapter 05
00:36:39.113                     : en:Chapter 06
00:44:54.900                     : en:Chapter 07
00:54:42.112                     : en:Chapter 08
01:01:10.792                     : en:Chapter 09
01:13:37.704                     : en:Chapter 10
01:19:21.548                     : en:Chapter 11
01:23:42.726                     : en:Chapter 12
01:31:53.299                     : en:Chapter 13
01:41:40.552                     : en:Chapter 14
01:53:17.207                     : en:Chapter 15
01:56:50.753                     : en:Chapter 16

Скриншоты

       
       

_________________
Человек – это канат, натянутый между животным и сверхчеловеком, – канат над пропастью.
В человеке ценно то, что он мост, а не цель. Фридрих Ницше
Other forum [Profile] [PM]
Display posts from previous:    
Reply to topic

The time now is: Today 12:01

All times are GMT + 3 Hours



You cannot post new topics in this forum
You cannot reply to topics in this forum
You cannot edit your posts in this forum
You cannot delete your posts in this forum
You cannot vote in polls in this forum
You cannot attach files in this forum
You cannot download files in this forum