Today is a free download without charge Download

Три мелодии (Гарри Бардин) [2013, Философический, TVRip]

Reply to topic
 
Author
Message

Omen ®

Longevity: 7 years 11 months

Posts: 181087

Торрент-статистика

Post 28-Jan-2015 12:01

[Quote]

Три мелодии
Страна: Россия
Жанр: Философический
Продолжительность: 00:17:37
Год выпуска: 2013
Русские субтитры: нет
Режиссёр: Гарри Бардин
Описание: Первый сюжет на Элегию Массне история о молодых влюбленных, которые ничего не замечают вокруг себя и одержимы только своими чувствами. Второй сюжет основан на легендарной композиции Луи Армстронга «Let my people go». Третья часть мультфильма — философская притча о жизни на музыку «Интродукция» и «Рондо-каприччиозо» Сен-Санса.
Качество: TVRip
Формат: MP4
Видео: H264 - MPEG-4 AVC, 720х576, 25fps, 2498kbs
Аудио: MPEG Audio, 48.0 KHz, 2Ch, 192 Kbps
Субтитры: отсутствуют

Подробные технические данные

Format : MPEG-TSFile size : 306 MiBDuration : 17mn 38sOverall bit rate mode : VariableOverall bit rate : 2 427 Kbps
VideoID : 68 (0x44)Menu ID : 1 (0x1)Format : AVCFormat/Info : Advanced Video CodecFormat profile : [email protected] settings, CABAC : YesFormat settings, ReFrames : 4 framesCodec ID : 27Duration : 17mn 38sBit rate : 2 113 KbpsWidth : 720 pixelsHeight : 576 pixelsDisplay aspect ratio : 4:3Frame rate : 25.000 fpsStandard : ComponentColor space : YUVChroma subsampling : 4:2:0Bit depth : 8 bitsScan type : MBAFFBits/(Pixel*Frame) : 0.204Stream size : 267 MiB (87%)Color primaries : BT.601 PALTransfer characteristics : BT.470 System B, BT.470 System GMatrix coefficients : BT.601
AudioID : 69 (0x45)Menu ID : 1 (0x1)Format : MPEG AudioFormat version : Version 1Format profile : Layer 2Codec ID : 3Duration : 17mn 38sBit rate mode : ConstantBit rate : 192 KbpsChannel(s) : 2 channelsSampling rate : 48.0 KHzCompression mode : LossyDelay relative to video : -18msStream size : 24.2 MiB (8%)Language : Russian

Скриншоты







Other forum [Profile] [PM]
Display posts from previous:    
Reply to topic

The time now is: Today 20:06

All times are GMT + 3 Hours



You cannot post new topics in this forum
You cannot reply to topics in this forum
You cannot edit your posts in this forum
You cannot delete your posts in this forum
You cannot vote in polls in this forum
You cannot attach files in this forum
You cannot download files in this forum