Today is a free download without charge Download

Остров сокровищ (Черкасский Д.) [1988 г., Музыкальный мультфильм, DVDRip]

Reply to topic
 
Author
Message

sashau ®

Gender:

Longevity: 8 years 10 months

Posts: 3497

Торрент-статистика

Post 27-Jan-2015 18:06

[Quote]

Остров сокровищ
Год выпуска: 1988
Страна: СССР
Жанр: Музыкальный мультфильм
Продолжительность: 01:46:50
Режиссер: Черкасский Д.
В ролях: Армен Джигарханян, Андриенко В., Бессараб В., Вознюк Б., Кишко Г., Паерный Е., Толчинский Г.
Описание: Цветной, рисованный, полнометражный мультипликационный фильм по мотивам романа Роберта Льюиса Стивенсона состоит из двух частей и сделан в нетрадиционной манере - он совмещает рисунок с игровыми моментами, в нем современная музыка и песни. Первая часть называется "Карта капитана Флинта" (1986), вторая - "Сокровища капитана Флинта" (1988). Все персонажи и ситуации выписаны карикатурно, с юмором, действие подано в комедийном ключе и развертывается весьма динамично.
Качество: DVDRip
Формат: AVI
Видео кодек: XviD
Аудио кодек: MP3
Видео: XVID 576x432 25.00fps 1622Kbps, 0.260 bit/ pixel
Аудио: MPEG Audio Layer 3 48000Hz stereo 128Kbps

Media Info1

Полное имя : D:\Фильмы\Остров сокровищ\ostrov.sokrovish.part1.avi
Формат : AVI
Формат/Информация : Audio Video Interleave
Размер файла : 598 Мбайт
Продолжительность : 47 м.
Общий поток : 1757 Кбит/сек
Название фильма : Остров сокровищ. 1-я серия.
Режиссёр : agor
Программа кодирования : VirtualDubMod 1.5.10.1 (build 2439/release)
Библиотека кодирования : VirtualDubMod build 2439/release
Формат оригинала/Имя : Cartoon
Идентификатор : 0
Формат : MPEG-4 Visual
Профиль формата : Advanced [email protected]
Параметр BVOP формата : 2
Параметр QPel формата : Нет
Параметр GMC формата : Без точки перехода
Параметр матрицы формата : Default (MPEG)
Идентификатор кодека : XVID
Идентификатор кодека/Подсказка : XviD
Продолжительность : 47 м.
Битрейт : 1620 Кбит/сек
Ширина : 576 пикселей
Высота : 432 пикселя
Соотношение сторон : 4:3
Частота кадров : 25,000 кадров/сек
Цветовое пространство : YUV
Субдискретизация насыщенности : 4:2:0
Битовая глубина : 8 бит
Тип развёртки : Прогрессивная
Метод сжатия : С потерями
Бит/(Пиксели*Кадры) : 0.260
Размер потока : 551 Мбайт (92%)
Библиотека кодирования : XviD 1.1.2 (UTC 2006-11-01)
Идентификатор : 1
Формат : MPEG Audio
Версия формата : Version 1
Профиль формата : Layer 3
Режим : Joint stereo
Расширение режима : MS Stereo
Идентификатор кодека : 55
Идентификатор кодека/Подсказка : MP3
Продолжительность : 47 м.
Вид битрейта : Постоянный
Битрейт : 128 Кбит/сек
Каналы : 2 канала
Частота : 48,0 КГц
Метод сжатия : С потерями
Задержка видео : 48 мс.
Размер потока : 43,5 Мбайт (7%)
Выравнивание : Соединение по промежуткам
Продолжительность промежутка : 40 мс. (1,00 видеокадр)
Время предзагрузки промежутка : 504 мс.

Media Info2

Полное имя : D:\Фильмы\Остров сокровищ\ostrov.sokrovish.part2.avi
Формат : AVI
Формат/Информация : Audio Video Interleave
Размер файла : 803 Мбайт
Продолжительность : 59 м.
Общий поток : 1893 Кбит/сек
Название фильма : Остров сокровищ. 2-я серия.
Режиссёр : agor
Программа кодирования : VirtualDubMod 1.5.10.1 (build 2439/release)
Библиотека кодирования : VirtualDubMod build 2439/release
Формат оригинала/Имя : Cartoon
Идентификатор : 0
Формат : MPEG-4 Visual
Профиль формата : Advanced [email protected]
Параметр BVOP формата : 2
Параметр QPel формата : Нет
Параметр GMC формата : Без точки перехода
Параметр матрицы формата : Default (MPEG)
Идентификатор кодека : XVID
Идентификатор кодека/Подсказка : XviD
Продолжительность : 59 м.
Битрейт : 1755 Кбит/сек
Ширина : 576 пикселей
Высота : 432 пикселя
Соотношение сторон : 4:3
Частота кадров : 25,000 кадров/сек
Цветовое пространство : YUV
Субдискретизация насыщенности : 4:2:0
Битовая глубина : 8 бит
Тип развёртки : Прогрессивная
Метод сжатия : С потерями
Бит/(Пиксели*Кадры) : 0.282
Размер потока : 744 Мбайт (93%)
Библиотека кодирования : XviD 1.1.2 (UTC 2006-11-01)
Идентификатор : 1
Формат : MPEG Audio
Версия формата : Version 1
Профиль формата : Layer 3
Режим : Joint stereo
Расширение режима : MS Stereo
Идентификатор кодека : 55
Идентификатор кодека/Подсказка : MP3
Продолжительность : 59 м.
Вид битрейта : Постоянный
Битрейт : 128 Кбит/сек
Каналы : 2 канала
Частота : 48,0 КГц
Метод сжатия : С потерями
Задержка видео : 1 с. 560 мс.
Размер потока : 54,3 Мбайт (7%)
Выравнивание : Разделение по промежуткам
Продолжительность промежутка : 40 мс. (1,00 видеокадр)
Время предзагрузки промежутка : 504 мс.

Скриншоты

       
Other forum [Profile] [PM]

kir

Longevity: 8 years 2 months

Posts: 12

Торрент-статистика

Post 27-Jan-2015 21:09 (after 3 hours)

[Quote]

Отличнейший мультфильм
Other forum [Profile] [PM]
Similar theme
Forum Topic Author Torrent Replies Last Post
./templates/default/images/folder_dl.gif Зарубежное кино (HD Video) Поезд в Пусан 2: Полуостров / Bando / Train to Busan 2 (Ён Сан-хо) [2020 г., Ужасы, боевик, WEB-DL 720p] DUB (Чистый звук) Theseus
1 | 0

0 | 425

1

2020-08-26 21:31
Theseus Latest
Display posts from previous:    
Reply to topic

The time now is: Today 19:20

All times are GMT + 3 Hours



You cannot post new topics in this forum
You cannot reply to topics in this forum
You cannot edit your posts in this forum
You cannot delete your posts in this forum
You cannot vote in polls in this forum
You cannot attach files in this forum
You cannot download files in this forum