Today is a free download without charge Download

Незнайка на Луне (Юрий Бутырин, Александр Люткевич) [1997 г., мультфильм, DVDRip-AVC] (Original)

Reply to topic
 
Author
Message

sashau ®

Gender:

Longevity: 8 years 10 months

Posts: 3497

Торрент-статистика

Post 27-Jan-2015 17:39

[Quote]

--Незнайка на Луне-- Год выпуска: 1997
Дата выхода DVD: 23 декабря 2008, «Союз-Видео»
Производство: Россия
Жанр: мультфильм
Продолжительность: 02:31:49 (12 серий по ~12 минут)
Перевод: Оригинал [Лицензия]
Режиссер: Юрий Бутырин, Александр Люткевич
В ролях: Венера Рахимова, Кристина Орбакайте, Светлана Степченко, Алексей Борзунов, Клара Румянова, Александр Леньков, Артем Карапетян, Михаил Кононов, Светлана Харлап
Описание: Незнайка находит на улице камень и считает, что этот камень упал с Луны. Он отдаёт его Знайке. На следующий день Знайка заметил, что при действии на камень магнитного поля камень создаёт невесомость. Знайка принял решение сделать ракету и полететь вместе с остальными коротышками на Луну, предварительно устроив спор с астрономом Стекляшкиным, о том, есть ли на Луне жизнь или нет.
Перед полётом на Луну Незнайка украл прибор невесомости и чуть не утопил его в реке. За это Знайка отказывается взять его на Луну, но Незнайка решил спрятаться в ракете и полететь несанкционированно. Вместе с собой он берёт Пончика, которого не взяли на Луну из-за того, что он очень тяжёлый, и его якобы не поднимет ракета. Когда Незнайка заснул в ракете, Пончик пытается выбраться из неё, но вместо этого запускает ракету, и они вдвоём с Незнайкой улетают на Луну.-IMDB
-Источник/Качество: DVDRip-AVC
Формат: MKV
Видео кодек: H.26x
Аудио кодек: AC3
Видео: [email protected]х568 (1,29:1), 25,000 кадр/сек, 1483 Кбит/сек, 0.152 bit/pixel
Аудио: AC3, 5 ch., 48 kHz, ~448.00 kbps

Список серий

01 - "Загадка Лунного Камня";
02 - "Грандиозный замысел Знайки";
03 - "Незнайка и Пончик летят на Луну"
04 - "Первый день на Луне";
05 - "Звёздочка";
06 - "Дорогие Друзья";
07 - "Акционерное Общество Гигантских Растений"
08 - "Большой Бредлам";
09 - "Незнайка ищет Работу"
10 - "Куда исчезла Ракета";
11 - "Знайка спешит на Помощь";
12 - "Дорога Домой"

Media Info

Общее
Уникальный идентификатор : 214346386020702833774664953644370372745 (0xA1419CC1B6DCB2BC941BEE50A1C42889)
Полное имя : F:\Neznaika.na.Lune.1997.DVDRip.x264.potroks.mkv
Формат : Matroska
Версия формата : Version 2
Размер файла : 2,05 Гбайт
Продолжительность : 2 ч. 31 м.
Общий поток : 1932 Кбит/сек
Название фильма : -=POTROKS=-
Дата кодирования : UTC 2011-04-18 16:39:27
Программа кодирования : mkvmerge v4.6.0 ('Still Crazy After All These Years') сборка от Mar 10 2011 02:50:32
Библиотека кодирования : libebml v1.2.0 + libmatroska v1.1.0
Видео
Идентификатор : 1
Формат : AVC
Формат/Информация : Advanced Video Codec
Профиль формата : [email protected]
Параметр CABAC формата : Да
Параметр ReFrames формата : 5 кадров
Режим смешивания : Header stripping
Идентификатор кодека : V_MPEG4/ISO/AVC
Продолжительность : 2 ч. 31 м.
Битрейт : 1483 Кбит/сек
Ширина : 688 пикселей
Высота : 568 пикселей
Соотношение сторон : 1,298
Частота кадров : 25,000 кадров/сек
Цветовое пространство : YUV
Субдискретизация насыщенности : 4:2:0
Битовая глубина : 8 бит
Тип развёртки : Прогрессивная
Бит/(Пиксели*Кадры) : 0.152
Размер потока : 1,53 Гбайт (75%)
Библиотека кодирования : x264 core 112 r1834 a51816a
Настройки программы : cabac=1 / ref=5 / deblock=1:-1:-1 / analyse=0x3:0x113 / me=umh / subme=8 / psy=1 / psy_rd=1.00:0.10 / mixed_ref=1 / me_range=16 / chroma_me=1 / trellis=1 / 8x8dct=1 / cqm=0 / deadzone=21,11 / fast_pskip=1 / chroma_qp_offset=-3 / threads=6 / sliced_threads=0 / nr=0 / decimate=1 / interlaced=0 / constrained_intra=0 / bframes=3 / b_pyramid=2 / b_adapt=2 / b_bias=0 / direct=3 / weightb=1 / open_gop=0 / weightp=2 / keyint=250 / keyint_min=25 / scenecut=40 / intra_refresh=0 / rc_lookahead=50 / rc=2pass / mbtree=1 / bitrate=1483 / ratetol=1.0 / qcomp=0.60 / qpmin=0 / qpmax=51 / qpstep=4 / cplxblur=20.0 / qblur=0.5 / ip_ratio=1.40 / aq=1:1.00
Аудио
Идентификатор : 2
Формат : AC-3
Формат/Информация : Audio Coding 3
Расширение режима : CM (complete main)
Режим смешивания : Header stripping
Идентификатор кодека : A_AC3
Продолжительность : 2 ч. 31 м.
Вид битрейта : Постоянный
Битрейт : 448 Кбит/сек
Каналы : 5 каналов
Расположение каналов : Front: L C R, Side: L R
Частота : 48,0 КГц
Битовая глубина : 16 бит
Метод сжатия : С потерями
Размер потока : 487 Мбайт (23%)

Скриншоты

       
Other forum [Profile] [PM]
Display posts from previous:    
Reply to topic

The time now is: Today 11:31

All times are GMT + 3 Hours



You cannot post new topics in this forum
You cannot reply to topics in this forum
You cannot edit your posts in this forum
You cannot delete your posts in this forum
You cannot vote in polls in this forum
You cannot attach files in this forum
You cannot download files in this forum