Today is a free download without charge Download

Приключения капитана Врунгеля (Давид Черкасский) [1976 г., мультфильм, мюзикл, боевик, приключения]

Reply to topic
 
Author
Message

sashau ®

Gender:

Longevity: 8 years 10 months

Posts: 3497

Торрент-статистика

Post 27-Jan-2015 17:28

[Quote]

Приключения капитана Врунгеля
Год выпуска: 1976
Производство: СССР
Жанр: мультфильм, мюзикл, боевик, приключения
Продолжительность: 01:57:14
Режиссер: Давид Черкасский
Описание: Готовилась кругосветная морская регата. Знаменитые капитаны всего мира получили приглашение участвовать в небывалом соревновании. Самые крупные ставки сделаны на яхту капитана Врунгеля «Беда» и иностранную «Черную Каракатицу». А в это же самое время в Королевском музее искусств совершается «Похищение века» – украдена статуя Венеры. По указанию Шефа гангстеров вор Фукс должен пронести ее на «Черную Каракатицу». Но капитан Врунгель зачислил Фукса матросом на «Беду»… Гангстеры Джулико Бандитто и де ля Воро Гангстеритто, ни о чем не подозревая, отправились встречать «товар». Расследовать дело поручено суперагенту Ноль Ноль Икс… В одном файле все 13 серий.
Доп. информация: В одном файле все 13 серий.

Формат: AVI
Видео кодек: XviD
Аудио кодек: MP3
Видео: 720x544 01:57:14 25fps XviD 2.1Mbps
Аудио: 44KHz 01:57:14 Stereo 127Kbps mp3

Media Info

General
Complete name : H:\Загрузки\Приключения капитана Врунгеля.avi
Format : AVI
Format/Info : Audio Video Interleave
File size : 1.86 GiB
Duration : 1h 57mn
Overall bit rate : 2 273 Kbps
Movie name : Капитан Врунгель
Director : МАРИО
Writing application : VirtualDubMod 1.5.10.1 Рус от Stvens Inc.™ www.stvens.amillo.net (build 2439/release)
Writing library : VirtualDub build 24442/release
Copyright : СЕРГЕЙ СВЕТЛОВ
Video
ID : 0
Format : MPEG-4 Visual
Format profile : Advanced [email protected]
Format settings, BVOP : 2
Format settings, QPel : No
Format settings, GMC : No warppoints
Format settings, Matrix : Default (MPEG)
Muxing mode : Packed bitstream
Codec ID : XVID
Codec ID/Hint : XviD
Duration : 1h 57mn
Bit rate : 2 136 Kbps
Width : 720 pixels
Height : 544 pixels
Display aspect ratio : 4:3
Frame rate : 25.000 fps
Color space : YUV
Chroma subsampling : 4:2:0
Bit depth : 8 bits
Scan type : Progressive
Compression mode : Lossy
Bits/(Pixel*Frame) : 0.218
Stream size : 1.75 GiB (94%)
Writing library : XviD 1.1.2 (UTC 2006-11-01)
Audio
ID : 1
Format : MPEG Audio
Format version : Version 1
Format profile : Layer 3
Mode : Joint stereo
Mode extension : MS Stereo
Codec ID : 55
Codec ID/Hint : MP3
Duration : 1h 57mn
Bit rate mode : Constant
Bit rate : 128 Kbps
Channel(s) : 2 channels
Sampling rate : 44.1 KHz
Compression mode : Lossy
Stream size : 107 MiB (6%)
Alignment : Split accross interleaves
Interleave, duration : 40 ms (1.00 video frame)
Interleave, preload duration : 501 ms

Скриншоты

       
Other forum [Profile] [PM]
Similar theme
Forum Topic Author Torrent Replies Last Post
./templates/default/images/folder_dl.gif Фильмы 2001-2010 Невероятная жизнь Уолтера Митти / The Secret Life of Walter Mitty (Бен Стиллер / Ben Stiller, 2013, Приключения, мелодрама, драма, комедия, фэнтези) WEB-DL [H.264/1080p-LQ] Omen
1 | 0

0 | 922

36

2014-03-26 22:37
Omen Latest
./templates/default/images/folder_dl.gif Обучающее видео Учебный центр 1C | Использование прикладного решения 1С Розница 8.2 Редакция 2 (2015) PCRec Varius
1 | 0

0 | 2524

44

2015-07-16 05:16
Varius Latest
./templates/default/images/folder_dl.gif Зарубежное кино Изгой-один: Звёздные войны. Истории / Rogue One: A Star Wars Story (Гарет Эдвардс) [2016 г., фантастика, боевик, приключения, BDRip 1080p] DUB | Чистый звук Theseus
1 | 0

0 | 7775

8

2017-03-22 11:05
Theseus Latest
./templates/default/images/folder_dl.gif Зарубежное кино (HD Video) Джим Пуговка и машинист Лукас / Jim Knopf und Lukas der Lokomotivführer (Деннис Ганзель) [2018 г., фэнтези, приключения, семейный, WEB-DL 720p] DUB | Чистый звук Theseus
1 | 0

0 | 1415

5

2018-09-27 19:29
Theseus Latest
./templates/default/images/folder_dl.gif Зарубежные сериалы Игра престолов / Game of Thrones / Сезон: 8 / Серии: 1-6 из 6 (Алан Тейлор / Alan Taylor) [2019, фэнтези, боевик, драма, мелодрама, приключения, WEB-DL 1080p] MVO (Amedia / Новамедиа) + Original + Sub (Rus, Eng) ¶ }{@R0N
1 | 0

0 | 1869

0

2019-05-20 12:02
}{@R0N Latest
./templates/default/images/folder_dl.gif Фильмы 2011-2020 Фиксики против кработов (Василий Бедошвили, Олег Ужинов, Иван Пшонкин) [2019 г., приключения, музыка, мультфильм, WEB-DLRip] kilmister777
1 | 0

0 | 675

3

2020-02-05 13:57
kilmister777 Latest
./templates/default/images/folder_dl.gif Фильмы 2011-2020 Удивительное путешествие доктора Дулиттла / Dolittle (Стивен Гейган) [2020 г., приключения, комедия, семейный, фэнтези, BDRip]MVO | HDRezka Studio kilmister777
1 | 0

0 | 614

0

2020-03-31 11:14
kilmister777 Latest
./templates/default/images/folder_dl.gif Фильмы 2011-2020 Бог грома / Mortal (Андре Овредал) [2020, фэнтези, боевик, приключения, WEB-DLRip] Dub (iTunes) Kon912
1 | 0

1 | 1037

8

2020-07-29 22:08
Pol Latest
./templates/default/images/folder_dl.gif Новинки (HD|DVD|BD|WEB|TV|SAT|PDTV|-Rip) Смотри как я (Егор Сальников) [2020 г., комедия, приключения, WEB-DLRip] iTunes kilmister777
1 | 0

0 | 1105

0

2020-09-27 14:17
kilmister777 Latest
./templates/default/images/folder_dl.gif Новинки (HD|DVD|BD|WEB|TV|SAT|PDTV|-Rip) Вратарь Галактики (Джаник Файзиев) [2020 г., приключения, фантастика, WEB-DLRip] kilmister777
2 | 0

0 | 980

0

2020-10-09 18:42
kilmister777 Latest
Display posts from previous:    
Reply to topic

The time now is: Today 02:12

All times are GMT + 3 Hours



You cannot post new topics in this forum
You cannot reply to topics in this forum
You cannot edit your posts in this forum
You cannot delete your posts in this forum
You cannot vote in polls in this forum
You cannot attach files in this forum
You cannot download files in this forum