Today is a free download without charge Download

Человечка нарисовал я (Зинаида Брумберг, Валентин Лалаянц, Валентина Брумберг) [1960 г., мультфильм, DVDRip]

Reply to topic
 
Author
Message

sashau ®

Gender:

Longevity: 8 years 10 months

Posts: 3497

Торрент-статистика

Post 27-Jan-2015 17:16

[Quote]

Человечка нарисовал я
Год выпуска: 1960
Производство: СССР
Жанр: мультфильм
Продолжительность: 00:52:42
Перевод: Не требуется
Субтитры: отсутствуют
Режиссер: Зинаида Брумберг, Валентин Лалаянц, Валентина Брумберг
Описание
О мальчике, который испачкал стену в классе, за что по ошибке наказали его товарища. После долгих мучений и многих
приключений с участием игрушек и волшебных персонажей герой сознает свою неправоту и признается в своей вине.

Источник/Качество: DVDRip
Формат: AVI
Видео кодек: XviD
Аудио кодек: AC3
Видео: 672x480 (1.40:1), 25 fps, XviD MPEG-4 ~1646 kbps avg, 0.20 bit/pixel
Аудио: 48 kHz, AC3 Dolby Digital, 2/0 (L,R) ch, ~192 kbps

Media Info

General
Complete name : C:\Трекер\Человечка нарисовал я\Человечка нарисовал я.avi
Format : AVI
Format/Info : Audio Video Interleave
File size : 697 MiB
Duration : 52mn 42s
Overall bit rate : 1 848 Kbps
Video
Format : MPEG-4 Visual
Format profile : Streaming [email protected]
Format settings, BVOP : Yes
Format settings, QPel : No
Format settings, GMC : No warppoints
Format settings, Matrix : Default
Muxing mode : Packed bitstream
Codec ID : XVID
Codec ID/Hint : XviD
Duration : 52mn 42s
Bit rate : 1 647 Kbps
Width : 672 pixels
Height : 480 pixels
Display aspect ratio : 1.400
Frame rate : 25.000 fps
Resolution : 24 bits
Colorimetry : 4:2:0
Scan type : Progressive
Bits/(Pixel*Frame) : 0.204
Stream size : 621 MiB (89%)
Writing library : XviD 1.2.0.dev47 (UTC 2006-11-01)
Audio
Format : AC-3
Format/Info : Audio Coding 3
Codec ID : 2000
Duration : 52mn 42s
Bit rate mode : Constant
Bit rate : 192 Kbps
Channel(s) : 2 channels
Channel positions : L R
Sampling rate : 48.0 KHz
Stream size : 72.4 MiB (10%)
Alignment : Split accross interleaves
Interleave, duration : 40 ms (1.00 video frame)
Interleave, preload duration : 500 ms
       
Other forum [Profile] [PM]
Similar theme
Forum Topic Author Torrent Replies Last Post
./templates/default/images/folder_dl.gif Фантастика, фэнтези, ужасы, мистика Дарья Бобылева | Забытый человек [сборник] (2014) [FB2] Omen
1 | 0

0 | 1296

3

2014-11-05 21:53
Omen Latest
./templates/default/images/folder_dl.gif Обучающая и развивающая литература, учебники Г. Л. Билич - Анатомия человека. Большой популярный атлас [2015, PDF, RUS] Anonymous
1 | 0

0 | 2887

15

2017-01-11 12:10
Anonymous Latest
./templates/default/images/folder_dl.gif Медицина и Здоровье Уинн Кэпит, Л.М. Элсон | Анатомия человека. Атлас-раскраска (2016) [PDF] }{@R0N
1 | 0

0 | 983

6

2018-03-23 11:51
}{@R0N Latest
Display posts from previous:    
Reply to topic

The time now is: Today 14:37

All times are GMT + 3 Hours



You cannot post new topics in this forum
You cannot reply to topics in this forum
You cannot edit your posts in this forum
You cannot delete your posts in this forum
You cannot vote in polls in this forum
You cannot attach files in this forum
You cannot download files in this forum