Today is a free download without charge Download

Приключения Филибера / Les aventures de Philibert, capitaine puceau (Сильвен Фюзе / Sylvain Fusee) [2011, Франция, комедия, приключения, DVD5] R5

Reply to topic
 
Author
Message

voovaz ®

Gender:

Longevity: 9 years 5 months

Posts: 87

Торрент-статистика

Post 25-Feb-2012 12:52

[Quote]

-Приключения Филибера / Les aventures de Philibert, capitaine puceau -Страна: Франция
Студия: Angoa-Agicoa, Canal+ [fr], Ciné Cinémas, Gaumont, M6, M6 Films, Mandarin Films, Procirep
Жанр: комедия, приключения
Год выпуска: 2011
Продолжительность: 01:42:01
Перевод: Профессиональный (многоголосый закадровый) [Лицензия]
Cубтитры: украинские-Режиссер: Сильвен Фюзе / Sylvain Fusee-В ролях: Жереми Ренье, Александр Астье, Ману Пайе, Элоди Наварр, Эрик Савен, Людовик Бертийо, Гаспар Пруст-Описание: В 1550 году молодой фермер Филибер имеет только две цели в жизни: сохранить семейную традицию выращивания артишоков и найти свою суженую, чтобы жениться на ней. Внезапно на смертном одре его отец сообщает ему, что на самом деле он сын графа, убитого двадцать лет назад таинственным дворянином с родинкой в виде розы на шее. Теперь он должен отказаться от старой жизни и отомстить за смерть своего настоящего отца.-Бонусы: Смотрите на DVD- -Релиз группы: -Качество: DVD5 R5
Формат: DVD-Video
Видео кодек: MPEG2
Аудио кодек: AC3
Видео: PAL 4:3 (720x576(0.434)) MPEG Video, 25,000 кадр/сек, 4499 Кбит/сек
Аудио: Russian (Dolby AC3, 2 ch) 224 Кбит/сек, 48,0 КГц-
-

DVDInfo

Title:
Size: 3.89 Gb ( 4 080 188 KBytes ) - DVD-5
Enabled regions: 1, 2, 3, 4, 5, 6, 7, 8
VTS_01 :
Play Length: 01:41:45+00:00:16
Video: PAL 4:3 (704x576) VBR
Audio:
Russian (Dolby AC3, 2 ch)
Subtitles:
Ukrainian
VTS_02 :
Play Length: 00:11:36
Video: PAL 16:9 (720x576) VBR, Auto Letterboxed
Audio:
Russian (Dolby AC3, 2 ch)
Menu Video:
PAL 16:9 (720x576) VBR
Auto Letterboxed
Menu Subtitles:
Not specified
Menu English Language Unit :
Root Menu

MediaInfo

Общее
Полное имя : G:\Новинки 2012\Prikljuchenija.Filibera.2011.DVD5\VIDEO_TS\VTS_01_1.VOB
Формат : MPEG-PS
Размер файла : 1000 Мбайт
Продолжительность : 29 м.
Режим общего битрейта : Переменный
Общий поток : 4819 Кбит/сек
Видео
Идентификатор : 224 (0xE0)
Формат : MPEG Video
Версия формата : Version 2
Профиль формата : [email protected]
Параметр BVOP формата : Да
Параметр матрицы формата : Выборочная
Параметр GOP формата : M=3, N=15
Продолжительность : 29 м.
Вид битрейта : Переменный
Битрейт : 4499 Кбит/сек
Максимальный битрейт : 5000 Кбит/сек
Ширина : 720 пикселей
Высота : 576 пикселей
Соотношение сторон : 4:3
Частота кадров : 25,000 кадров/сек
Стандарт вещания : PAL
Цветовое пространство : YUV
Субдискретизация насыщенности : 4:2:0
Битовая глубина : 8 бит
Тип развёртки : Чересстрочная
Порядок развёртки : Верхнее поле первое
Метод сжатия : С потерями
Бит/(Пиксели*Кадры) : 0.434
Размер потока : 934 Мбайт (93%)
Аудио
Идентификатор : 189 (0xBD)-128 (0x80)
Формат : AC-3
Формат/Информация : Audio Coding 3
Расширение режима : CM (complete main)
Режим смешивания : DVD-Video
Продолжительность : 29 м.
Вид битрейта : Постоянный
Битрейт : 224 Кбит/сек
Каналы : 2 канала
Расположение каналов : Front: L R
Частота : 48,0 КГц
Битовая глубина : 16 бит
Метод сжатия : С потерями
Размер потока : 46,5 Мбайт (5%)
Текст
Идентификатор : 189 (0xBD)-32 (0x20)
Формат : RLE
Формат/Информация : Run-length encoding
Режим смешивания : DVD-Video

Скриншоты меню

     

Скриншоты фильма

               
-
-
-
-
Other forum [Profile] [PM]
Similar theme
Forum Topic Author Torrent Replies Last Post
./templates/default/images/folder_dl.gif Фильмы 2001-2010 Невероятная жизнь Уолтера Митти / The Secret Life of Walter Mitty (Бен Стиллер / Ben Stiller, 2013, Приключения, мелодрама, драма, комедия, фэнтези) WEB-DL [H.264/1080p-LQ] Omen
1 | 0

0 | 1084

36

2014-03-26 22:37
Omen Latest
./templates/default/images/folder_dl.gif Обучающее видео Учебный центр 1C | Использование прикладного решения 1С Розница 8.2 Редакция 2 (2015) PCRec Varius
1 | 0

0 | 2694

44

2015-07-16 05:16
Varius Latest
./templates/default/images/folder_dl.gif Зарубежное кино Изгой-один: Звёздные войны. Истории / Rogue One: A Star Wars Story (Гарет Эдвардс) [2016 г., фантастика, боевик, приключения, BDRip 1080p] DUB | Чистый звук Theseus
1 | 0

0 | 7973

8

2017-03-22 11:05
Theseus Latest
./templates/default/images/folder_dl.gif Зарубежные сериалы Игра престолов / Game of Thrones / Сезон: 8 / Серии: 1-6 из 6 (Алан Тейлор / Alan Taylor) [2019, фэнтези, боевик, драма, мелодрама, приключения, WEB-DL 1080p] MVO (Amedia / Новамедиа) + Original + Sub (Rus, Eng) ¶ }{@R0N
1 | 0

0 | 2491

0

2019-05-20 12:02
}{@R0N Latest
./templates/default/images/folder_dl.gif Новинки (HD|DVD|BD|WEB|TV|SAT|PDTV|-Rip) Смотри как я (Егор Сальников) [2020 г., комедия, приключения, WEB-DLRip] iTunes kilmister777
1 | 0

0 | 1286

0

2020-09-27 14:17
kilmister777 Latest
./templates/default/images/folder_dl.gif Новинки (HD|DVD|BD|WEB|TV|SAT|PDTV|-Rip) Конёк-Горбунок / Upon the Magic Roads (Олег Погодин) [2021, Россия, приключения, фэнтези, комедия, WEB-DL 1080p] }{@R0N
1 | 0

0 | 1826

0

2021-04-01 21:14
}{@R0N Latest
Display posts from previous:    
Reply to topic

The time now is: Today 05:10

All times are GMT + 3 Hours



You cannot post new topics in this forum
You cannot reply to topics in this forum
You cannot edit your posts in this forum
You cannot delete your posts in this forum
You cannot vote in polls in this forum
You cannot attach files in this forum
You cannot download files in this forum