Today is a free download without charge Download

Hughes Glenn Live In Wolverhampton 2 [2009 г., Rock/Blues- Rock, DVD9]

Reply to topic
 
Author
Message

радист ®

Gender:

Longevity: 10 years

Posts: 164

Торрент-статистика

Post 25-Feb-2012 10:11

[Quote]

Hughes Glenn Live In Wolverhampton 2
Год выпуска: 2009
Страна: United Kingdom
Жанр: Rock/Blues- Rock
Продолжительность: 01:25:22+00:13:25

Night 1

1. Muscle and blood
2. You got soul
3. Love communion
4. Don't let me bleed
5. What's goin on fere
6. Mistreated
7. Steppin' on
-------------------------------
8. Crave
9. Hold out your life
Nigth 2
1. Way back to the bone
2. Touch my life
3. Jury
4. Keepin' time
5. Coast to coast
6. Seafull
7. Good live
8. Your love is alrigth
9. Medusa

Описание: DVD был записан в рамках двухдневного выступления Hughes'a 6 и 7 июня в его родном городе Bilston (Великобритания).
В жизненно важный вечер, названный 'Glenn Hughes With His Full Band', Hughes и его банда исполняли песни славных дней в DEEP PURPLE и заканчивая композициями из 2009 года. В сет вошли песни 'Muscle & Blood' (из альбома Hughes'а/Thrall'а), 'You Got Soul' (из 'Music for the Divine'), 'Don't Let Me Bleed' (из 'Soul Mover') и 'Crave' (из 'First Underground Nuclear Kitchen'), до того никогда не исполнявшиеся в Великобритании.
Второй мальчишник получил название 'You Are The Music'. На нём Hughes исполнил песни из репертуара TRAPEZE — впервые в своей сольной карьере. Вечер был посвящён памяти его друга, гитариста TRAPEZE Mel'a Galley, покинувшего этот свет в июне 2008 года. Glenn в (высшей степени эмоционально выступил, изменив аранжировки песен альбомов 'Medusa' ('Touch My Life', 'Black Cloud', 'Medusa') и 'You Are the Music... We're Just the Band' ('Way Back to the Bone', 'Coast to Coast', 'You Are the Music').
Музыка обычно была тяжёлой, иногда изящной и интересной. Голос Hughes'а, как правило душевный и узнаваемый, был превосходен, интонации шли от самого сердца. Этот DVD станет прекрасным подарком не только поклонникам Glenn'a, но и всем, кто любит правильный рок.

Качество: DVD9
Формат: DVD Video
Видео кодек: MPEG2
Аудио кодек: AC3
Видео: PAL 16:9 (720x576) VBR Auto Letterboxed, 7000 Кбит/сек
Аудио: English (Dolby AC3, 2 ch), 320 Кбит/сек, 48,0 КГц

Скриншоты

         

MediaInfo

Код:
Общее
Полное имя                               : D:\tltorrent загрузки\Glenn Hughes\Cover\ТИНА.JPG
Формат                                   : JPEG
Размер файла                             : 4,36 Мбайт
Изображения
Формат                                   : JPEG
Ширина                                   : 4960 пикселей
Высота                                   : 7015 пикселей
Субдискретизация насыщенности            : 4:2:0
Битовая глубина                          : 8 бит
Метод сжатия                             : С потерями
Общее
Полное имя                               : D:\tltorrent загрузки\Glenn Hughes\Cover\ТИНА0001.JPG
Формат                                   : JPEG
Размер файла                             : 5,32 Мбайт
Изображения
Формат                                   : JPEG
Ширина                                   : 4960 пикселей
Высота                                   : 7015 пикселей
Субдискретизация насыщенности            : 4:2:0
Битовая глубина                          : 8 бит
Метод сжатия                             : С потерями
Общее
Полное имя                               : D:\tltorrent загрузки\Glenn Hughes\Live In Wolverhampton 2\VIDEO_TS.BUP
Формат                                   : DVD Video
Профиль формата                          : Menu
Размер файла                             : 16,0 Кбайт
Режим общего битрейта                    : Переменный
Видео
Идентификатор                            : 224 (0xE0)
Формат                                   : MPEG Video
Версия формата                           : Version 2
Вид битрейта                             : Переменный
Ширина                                   : 720 пикселей
Высота                                   : 576 пикселей
Соотношение сторон                       : 16:9
Частота кадров                           : 25,000 кадров/сек
Стандарт вещания                         : PAL
Метод сжатия                             : С потерями
Текст
Формат                                   : RLE
Формат/Информация                        : Run-length encoding
Битовая глубина                          : 2 бит
Общее
Полное имя                               : D:\tltorrent загрузки\Glenn Hughes\Live In Wolverhampton 2\VIDEO_TS.IFO
Формат                                   : DVD Video
Профиль формата                          : Menu
Размер файла                             : 16,0 Кбайт
Режим общего битрейта                    : Переменный
Видео
Идентификатор                            : 224 (0xE0)
Формат                                   : MPEG Video
Версия формата                           : Version 2
Вид битрейта                             : Переменный
Ширина                                   : 720 пикселей
Высота                                   : 576 пикселей
Соотношение сторон                       : 16:9
Частота кадров                           : 25,000 кадров/сек
Стандарт вещания                         : PAL
Метод сжатия                             : С потерями
Текст
Формат                                   : RLE
Формат/Информация                        : Run-length encoding
Битовая глубина                          : 2 бит
Общее
Полное имя                               : D:\tltorrent загрузки\Glenn Hughes\Live In Wolverhampton 2\VIDEO_TS.VOB
Формат                                   : MPEG-PS
Размер файла                             : 154 Кбайт
Продолжительность                        : 520 мс.
Общий поток                              : 2426 Кбит/сек
Видео
Идентификатор                            : 224 (0xE0)
Формат                                   : MPEG Video
Версия формата                           : Version 2
Профиль формата                          : [email protected]
Параметр BVOP формата                    : Да
Параметр матрицы формата                 : Выборочная
Продолжительность                        : 520 мс.
Максимальный битрейт                     : 2000 Кбит/сек
Ширина                                   : 720 пикселей
Высота                                   : 576 пикселей
Соотношение сторон                       : 4:3
Частота кадров                           : 25,000 кадров/сек
Стандарт вещания                         : PAL
Цветовое пространство                    : YUV
Субдискретизация насыщенности            : 4:2:0
Битовая глубина                          : 8 бит
Тип развёртки                            : Чересстрочная
Порядок развёртки                        : Верхнее поле первое
Метод сжатия                             : С потерями
Текст
Идентификатор                            : 189 (0xBD)-32 (0x20)
Формат                                   : RLE
Формат/Информация                        : Run-length encoding
Режим смешивания                         : DVD-Video
Задержка видео                           : -80 мс.
Меню
Общее
Полное имя                               : D:\tltorrent загрузки\Glenn Hughes\Live In Wolverhampton 2\VTS_01_0.BUP
Формат                                   : DVD Video
Профиль формата                          : Program
Размер файла                             : 24,0 Кбайт
Продолжительность                        : 10 с.
Режим общего битрейта                    : Переменный
Общий поток                              : 18,9 Кбит/сек
Видео
Идентификатор                            : 224 (0xE0)
Формат                                   : MPEG Video
Версия формата                           : Version 2
Продолжительность                        : 10 с.
Вид битрейта                             : Переменный
Ширина                                   : 720 пикселей
Высота                                   : 576 пикселей
Соотношение сторон                       : 16:9
Частота кадров                           : 25,000 кадров/сек
Стандарт вещания                         : PAL
Метод сжатия                             : С потерями
Аудио #1
Идентификатор                            : 128 (0x80)
Формат                                   : AC-3
Формат/Информация                        : Audio Coding 3
Продолжительность                        : 10 с.
Каналы                                   : 2 канала
Частота                                  : 48,0 КГц
Метод сжатия                             : С потерями
Язык                                     : English
Аудио #2
Формат                                   : AC-3
Формат/Информация                        : Audio Coding 3
Продолжительность                        : 10 с.
Каналы                                   : 6 каналов
Частота                                  : 48,0 КГц
Метод сжатия                             : С потерями
Язык                                     : English
Аудио #3
Формат                                   : AC-3
Формат/Информация                        : Audio Coding 3
Продолжительность                        : 10 с.
Каналы                                   : 6 каналов
Частота                                  : 48,0 КГц
Метод сжатия                             : С потерями
Язык                                     : English
Аудио #4
Формат                                   : AC-3
Формат/Информация                        : Audio Coding 3
Продолжительность                        : 10 с.
Каналы                                   : 6 каналов
Частота                                  : 48,0 КГц
Метод сжатия                             : С потерями
Язык                                     : English
Аудио #5
Формат                                   : AC-3
Формат/Информация                        : Audio Coding 3
Продолжительность                        : 10 с.
Каналы                                   : 6 каналов
Частота                                  : 48,0 КГц
Метод сжатия                             : С потерями
Язык                                     : English
Аудио #6
Формат                                   : AC-3
Формат/Информация                        : Audio Coding 3
Продолжительность                        : 10 с.
Каналы                                   : 6 каналов
Частота                                  : 48,0 КГц
Метод сжатия                             : С потерями
Язык                                     : English
Аудио #7
Формат                                   : AC-3
Формат/Информация                        : Audio Coding 3
Продолжительность                        : 10 с.
Каналы                                   : 6 каналов
Частота                                  : 48,0 КГц
Метод сжатия                             : С потерями
Язык                                     : English
Аудио #8
Формат                                   : AC-3
Формат/Информация                        : Audio Coding 3
Продолжительность                        : 10 с.
Каналы                                   : 6 каналов
Частота                                  : 48,0 КГц
Метод сжатия                             : С потерями
Язык                                     : English
Текст #1
Формат                                   : RLE
Формат/Информация                        : Run-length encoding
Битовая глубина                          : 2 бит
Текст #2
Формат                                   : RLE
Формат/Информация                        : Run-length encoding
Битовая глубина                          : 2 бит
Текст #3
Формат                                   : RLE
Формат/Информация                        : Run-length encoding
Битовая глубина                          : 2 бит
Текст #4
Формат                                   : RLE
Формат/Информация                        : Run-length encoding
Битовая глубина                          : 2 бит
Текст #5
Формат                                   : RLE
Формат/Информация                        : Run-length encoding
Битовая глубина                          : 2 бит
Текст #6
Формат                                   : RLE
Формат/Информация                        : Run-length encoding
Битовая глубина                          : 2 бит
Текст #7
Формат                                   : RLE
Формат/Информация                        : Run-length encoding
Битовая глубина                          : 2 бит
Текст #8
Формат                                   : RLE
Формат/Информация                        : Run-length encoding
Битовая глубина                          : 2 бит
Текст #9
Формат                                   : RLE
Формат/Информация                        : Run-length encoding
Битовая глубина                          : 2 бит
Текст #10
Формат                                   : RLE
Формат/Информация                        : Run-length encoding
Битовая глубина                          : 2 бит
Текст #11
Формат                                   : RLE
Формат/Информация                        : Run-length encoding
Битовая глубина                          : 2 бит
Текст #12
Формат                                   : RLE
Формат/Информация                        : Run-length encoding
Битовая глубина                          : 2 бит
Текст #13
Формат                                   : RLE
Формат/Информация                        : Run-length encoding
Битовая глубина                          : 2 бит
Текст #14
Формат                                   : RLE
Формат/Информация                        : Run-length encoding
Битовая глубина                          : 2 бит
Текст #15
Формат                                   : RLE
Формат/Информация                        : Run-length encoding
Битовая глубина                          : 2 бит
Текст #16
Формат                                   : RLE
Формат/Информация                        : Run-length encoding
Битовая глубина                          : 2 бит
Текст #17
Формат                                   : RLE
Формат/Информация                        : Run-length encoding
Битовая глубина                          : 2 бит
Текст #18
Формат                                   : RLE
Формат/Информация                        : Run-length encoding
Битовая глубина                          : 2 бит
Текст #19
Формат                                   : RLE
Формат/Информация                        : Run-length encoding
Битовая глубина                          : 2 бит
Текст #20
Формат                                   : RLE
Формат/Информация                        : Run-length encoding
Битовая глубина                          : 2 бит
Текст #21
Формат                                   : RLE
Формат/Информация                        : Run-length encoding
Битовая глубина                          : 2 бит
Текст #22
Формат                                   : RLE
Формат/Информация                        : Run-length encoding
Битовая глубина                          : 2 бит
Текст #23
Формат                                   : RLE
Формат/Информация                        : Run-length encoding
Битовая глубина                          : 2 бит
Текст #24
Формат                                   : RLE
Формат/Информация                        : Run-length encoding
Битовая глубина                          : 2 бит
Текст #25
Формат                                   : RLE
Формат/Информация                        : Run-length encoding
Битовая глубина                          : 2 бит
Текст #26
Формат                                   : RLE
Формат/Информация                        : Run-length encoding
Битовая глубина                          : 2 бит
Текст #27
Формат                                   : RLE
Формат/Информация                        : Run-length encoding
Битовая глубина                          : 2 бит
Текст #28
Формат                                   : RLE
Формат/Информация                        : Run-length encoding
Битовая глубина                          : 2 бит
Текст #29
Формат                                   : RLE
Формат/Информация                        : Run-length encoding
Битовая глубина                          : 2 бит
Текст #30
Формат                                   : RLE
Формат/Информация                        : Run-length encoding
Битовая глубина                          : 2 бит
Текст #31
Формат                                   : RLE
Формат/Информация                        : Run-length encoding
Битовая глубина                          : 2 бит
Текст #32
Формат                                   : RLE
Формат/Информация                        : Run-length encoding
Битовая глубина                          : 2 бит
Меню
Продолжительность                        : 10 с.
00:00:00.000                             : Chapter 1
List (Audio)                             : 0
Общее
Полное имя                               : D:\tltorrent загрузки\Glenn Hughes\Live In Wolverhampton 2\VTS_01_0.IFO
Формат                                   : DVD Video
Профиль формата                          : Program
Размер файла                             : 24,0 Кбайт
Продолжительность                        : 10 с.
Режим общего битрейта                    : Переменный
Общий поток                              : 18,9 Кбит/сек
Видео
Идентификатор                            : 224 (0xE0)
Формат                                   : MPEG Video
Версия формата                           : Version 2
Продолжительность                        : 10 с.
Вид битрейта                             : Переменный
Ширина                                   : 720 пикселей
Высота                                   : 576 пикселей
Соотношение сторон                       : 16:9
Частота кадров                           : 25,000 кадров/сек
Стандарт вещания                         : PAL
Метод сжатия                             : С потерями
Аудио #1
Идентификатор                            : 128 (0x80)
Формат                                   : AC-3
Формат/Информация                        : Audio Coding 3
Продолжительность                        : 10 с.
Каналы                                   : 2 канала
Частота                                  : 48,0 КГц
Метод сжатия                             : С потерями
Язык                                     : English
Аудио #2
Формат                                   : AC-3
Формат/Информация                        : Audio Coding 3
Продолжительность                        : 10 с.
Каналы                                   : 6 каналов
Частота                                  : 48,0 КГц
Метод сжатия                             : С потерями
Язык                                     : English
Аудио #3
Формат                                   : AC-3
Формат/Информация                        : Audio Coding 3
Продолжительность                        : 10 с.
Каналы                                   : 6 каналов
Частота                                  : 48,0 КГц
Метод сжатия                             : С потерями
Язык                                     : English
Аудио #4
Формат                                   : AC-3
Формат/Информация                        : Audio Coding 3
Продолжительность                        : 10 с.
Каналы                                   : 6 каналов
Частота                                  : 48,0 КГц
Метод сжатия                             : С потерями
Язык                                     : English
Аудио #5
Формат                                   : AC-3
Формат/Информация                        : Audio Coding 3
Продолжительность                        : 10 с.
Каналы                                   : 6 каналов
Частота                                  : 48,0 КГц
Метод сжатия                             : С потерями
Язык                                     : English
Аудио #6
Формат                                   : AC-3
Формат/Информация                        : Audio Coding 3
Продолжительность                        : 10 с.
Каналы                                   : 6 каналов
Частота                                  : 48,0 КГц
Метод сжатия                             : С потерями
Язык                                     : English
Аудио #7
Формат                                   : AC-3
Формат/Информация                        : Audio Coding 3
Продолжительность                        : 10 с.
Каналы                                   : 6 каналов
Частота                                  : 48,0 КГц
Метод сжатия                             : С потерями
Язык                                     : English
Аудио #8
Формат                                   : AC-3
Формат/Информация                        : Audio Coding 3
Продолжительность                        : 10 с.
Каналы                                   : 6 каналов
Частота                                  : 48,0 КГц
Метод сжатия                             : С потерями
Язык                                     : English
Текст #1
Формат                                   : RLE
Формат/Информация                        : Run-length encoding
Битовая глубина                          : 2 бит
Текст #2
Формат                                   : RLE
Формат/Информация                        : Run-length encoding
Битовая глубина                          : 2 бит
Текст #3
Формат                                   : RLE
Формат/Информация                        : Run-length encoding
Битовая глубина                          : 2 бит
Текст #4
Формат                                   : RLE
Формат/Информация                        : Run-length encoding
Битовая глубина                          : 2 бит
Текст #5
Формат                                   : RLE
Формат/Информация                        : Run-length encoding
Битовая глубина                          : 2 бит
Текст #6
Формат                                   : RLE
Формат/Информация                        : Run-length encoding
Битовая глубина                          : 2 бит
Текст #7
Формат                                   : RLE
Формат/Информация                        : Run-length encoding
Битовая глубина                          : 2 бит
Текст #8
Формат                                   : RLE
Формат/Информация                        : Run-length encoding
Битовая глубина                          : 2 бит
Текст #9
Формат                                   : RLE
Формат/Информация                        : Run-length encoding
Битовая глубина                          : 2 бит
Текст #10
Формат                                   : RLE
Формат/Информация                        : Run-length encoding
Битовая глубина                          : 2 бит
Текст #11
Формат                                   : RLE
Формат/Информация                        : Run-length encoding
Битовая глубина                          : 2 бит
Текст #12
Формат                                   : RLE
Формат/Информация                        : Run-length encoding
Битовая глубина                          : 2 бит
Текст #13
Формат                                   : RLE
Формат/Информация                        : Run-length encoding
Битовая глубина                          : 2 бит
Текст #14
Формат                                   : RLE
Формат/Информация                        : Run-length encoding
Битовая глубина                          : 2 бит
Текст #15
Формат                                   : RLE
Формат/Информация                        : Run-length encoding
Битовая глубина                          : 2 бит
Текст #16
Формат                                   : RLE
Формат/Информация                        : Run-length encoding
Битовая глубина                          : 2 бит
Текст #17
Формат                                   : RLE
Формат/Информация                        : Run-length encoding
Битовая глубина                          : 2 бит
Текст #18
Формат                                   : RLE
Формат/Информация                        : Run-length encoding
Битовая глубина                          : 2 бит
Текст #19
Формат                                   : RLE
Формат/Информация                        : Run-length encoding
Битовая глубина                          : 2 бит
Текст #20
Формат                                   : RLE
Формат/Информация                        : Run-length encoding
Битовая глубина                          : 2 бит
Текст #21
Формат                                   : RLE
Формат/Информация                        : Run-length encoding
Битовая глубина                          : 2 бит
Текст #22
Формат                                   : RLE
Формат/Информация                        : Run-length encoding
Битовая глубина                          : 2 бит
Текст #23
Формат                                   : RLE
Формат/Информация                        : Run-length encoding
Битовая глубина                          : 2 бит
Текст #24
Формат                                   : RLE
Формат/Информация                        : Run-length encoding
Битовая глубина                          : 2 бит
Текст #25
Формат                                   : RLE
Формат/Информация                        : Run-length encoding
Битовая глубина                          : 2 бит
Текст #26
Формат                                   : RLE
Формат/Информация                        : Run-length encoding
Битовая глубина                          : 2 бит
Текст #27
Формат                                   : RLE
Формат/Информация                        : Run-length encoding
Битовая глубина                          : 2 бит
Текст #28
Формат                                   : RLE
Формат/Информация                        : Run-length encoding
Битовая глубина                          : 2 бит
Текст #29
Формат                                   : RLE
Формат/Информация                        : Run-length encoding
Битовая глубина                          : 2 бит
Текст #30
Формат                                   : RLE
Формат/Информация                        : Run-length encoding
Битовая глубина                          : 2 бит
Текст #31
Формат                                   : RLE
Формат/Информация                        : Run-length encoding
Битовая глубина                          : 2 бит
Текст #32
Формат                                   : RLE
Формат/Информация                        : Run-length encoding
Битовая глубина                          : 2 бит
Меню
Продолжительность                        : 10 с.
00:00:00.000                             : Chapter 1
List (Audio)                             : 0
Общее
Полное имя                               : D:\tltorrent загрузки\Glenn Hughes\Live In Wolverhampton 2\VTS_01_0.VOB
Формат                                   : MPEG-PS
Размер файла                             : 14,8 Мбайт
Продолжительность                        : 14 с.
Общий поток                              : 8425 Кбит/сек
Видео
Идентификатор                            : 224 (0xE0)
Формат                                   : MPEG Video
Версия формата                           : Version 2
Профиль формата                          : [email protected]
Параметр BVOP формата                    : Да
Параметр матрицы формата                 : Выборочная
Параметр GOP формата                     : M=3, N=12
Продолжительность                        : 14 с.
Битрейт                                  : 8033 Кбит/сек
Максимальный битрейт                     : 7000 Кбит/сек
Ширина                                   : 720 пикселей
Высота                                   : 576 пикселей
Соотношение сторон                       : 16:9
Частота кадров                           : 25,000 кадров/сек
Стандарт вещания                         : PAL
Цветовое пространство                    : YUV
Субдискретизация насыщенности            : 4:2:0
Битовая глубина                          : 8 бит
Тип развёртки                            : Чересстрочная
Порядок развёртки                        : Верхнее поле первое
Метод сжатия                             : С потерями
Бит/(Пиксели*Кадры)                      : 0.775
Размер потока                            : 14,1 Мбайт (95%)
Аудио
Идентификатор                            : 189 (0xBD)-128 (0x80)
Формат                                   : AC-3
Формат/Информация                        : Audio Coding 3
Расширение режима                        : CM (complete main)
Режим смешивания                         : DVD-Video
Продолжительность                        : 14 с.
Вид битрейта                             : Постоянный
Битрейт                                  : 224 Кбит/сек
Каналы                                   : 2 канала
Расположение каналов                     : Front: L R
Частота                                  : 48,0 КГц
Битовая глубина                          : 16 бит
Метод сжатия                             : С потерями
Задержка видео                           : -80 мс.
Размер потока                            : 404 Кбайт (3%)
Текст #1
Идентификатор                            : 189 (0xBD)-32 (0x20)
Формат                                   : RLE
Формат/Информация                        : Run-length encoding
Режим смешивания                         : DVD-Video
Задержка видео                           : -80 мс.
Текст #2
Идентификатор                            : 189 (0xBD)-33 (0x21)
Формат                                   : RLE
Формат/Информация                        : Run-length encoding
Режим смешивания                         : DVD-Video
Задержка видео                           : -80 мс.
Меню
Общее
Полное имя                               : D:\tltorrent загрузки\Glenn Hughes\Live In Wolverhampton 2\VTS_01_1.VOB
Формат                                   : MPEG-PS
Размер файла                             : 10,5 Мбайт
Продолжительность                        : 10 с.
Общий поток                              : 8548 Кбит/сек
Видео
Идентификатор                            : 224 (0xE0)
Формат                                   : MPEG Video
Версия формата                           : Version 2
Профиль формата                          : [email protected]
Параметр BVOP формата                    : Да
Параметр матрицы формата                 : Выборочная
Параметр GOP формата                     : M=3, N=12
Продолжительность                        : 10 с.
Битрейт                                  : 8000 Кбит/сек
Ширина                                   : 720 пикселей
Высота                                   : 576 пикселей
Соотношение сторон                       : 16:9
Частота кадров                           : 25,000 кадров/сек
Стандарт вещания                         : PAL
Цветовое пространство                    : YUV
Субдискретизация насыщенности            : 4:2:0
Битовая глубина                          : 8 бит
Тип развёртки                            : Чересстрочная
Порядок развёртки                        : Верхнее поле первое
Метод сжатия                             : С потерями
Бит/(Пиксели*Кадры)                      : 0.772
Размер потока                            : 9,91 Мбайт (94%)
Аудио
Идентификатор                            : 189 (0xBD)-128 (0x80)
Формат                                   : AC-3
Формат/Информация                        : Audio Coding 3
Расширение режима                        : CM (complete main)
Режим смешивания                         : DVD-Video
Продолжительность                        : 10 с.
Вид битрейта                             : Постоянный
Битрейт                                  : 320 Кбит/сек
Каналы                                   : 2 канала
Расположение каналов                     : Front: L R
Частота                                  : 48,0 КГц
Битовая глубина                          : 16 бит
Метод сжатия                             : С потерями
Задержка видео                           : -80 мс.
Размер потока                            : 398 Кбайт (4%)
Меню
Общее
Полное имя                               : D:\tltorrent загрузки\Glenn Hughes\Live In Wolverhampton 2\VTS_02_0.BUP
Формат                                   : DVD Video
Профиль формата                          : Program
Размер файла                             : 62,0 Кбайт
Продолжительность                        : 1 ч. 25 м.
Режим общего битрейта                    : Переменный
Общий поток                              : 99 бит/сек
Видео
Идентификатор                            : 224 (0xE0)
Формат                                   : MPEG Video
Версия формата                           : Version 2
Продолжительность                        : 1 ч. 25 м.
Вид битрейта                             : Переменный
Ширина                                   : 720 пикселей
Высота                                   : 576 пикселей
Соотношение сторон                       : 16:9
Частота кадров                           : 25,000 кадров/сек
Стандарт вещания                         : PAL
Метод сжатия                             : С потерями
Аудио
Идентификатор                            : 128 (0x80)
Формат                                   : AC-3
Формат/Информация                        : Audio Coding 3
Продолжительность                        : 1 ч. 25 м.
Каналы                                   : 2 канала
Частота                                  : 48,0 КГц
Метод сжатия                             : С потерями
Язык                                     : English
Меню #1
Продолжительность                        : 1 ч. 25 м.
00:00:00.000                             : Chapter 1
00:02:57.480                             : Chapter 2
00:08:09.360                             : Chapter 3
00:14:07.080                             : Chapter 4
00:20:46.600                             : Chapter 5
00:34:48.320                             : Chapter 6
00:43:16.960                             : Chapter 7
01:04:12.120                             : Chapter 8
01:13:51.040                             : Chapter 9
01:19:07.080                             : Chapter 10
01:25:21.680                             : Chapter 11
List (Audio)                             : 0
Меню #2
Продолжительность                        : 1 ч. 25 м.
00:00:00.000                             : Chapter 1
00:00:02.680                             : Chapter 2
00:00:18.680                             : Chapter 3
00:00:24.360                             : Chapter 4
00:01:09.360                             : Chapter 5
00:01:24.360                             : Chapter 6
00:02:00.360                             : Chapter 7
00:02:20.960                             : Chapter 8
00:03:07.960                             : Chapter 9
00:03:28.960                             : Chapter 10
00:03:48.960                             : Chapter 11
List (Audio)                             : 0
Меню #3
Общее
Полное имя                               : D:\tltorrent загрузки\Glenn Hughes\Live In Wolverhampton 2\VTS_02_0.IFO
Формат                                   : DVD Video
Профиль формата                          : Program
Размер файла                             : 62,0 Кбайт
Продолжительность                        : 1 ч. 25 м.
Режим общего битрейта                    : Переменный
Общий поток                              : 99 бит/сек
Видео
Идентификатор                            : 224 (0xE0)
Формат                                   : MPEG Video
Версия формата                           : Version 2
Продолжительность                        : 1 ч. 25 м.
Вид битрейта                             : Переменный
Ширина                                   : 720 пикселей
Высота                                   : 576 пикселей
Соотношение сторон                       : 16:9
Частота кадров                           : 25,000 кадров/сек
Стандарт вещания                         : PAL
Метод сжатия                             : С потерями
Аудио
Идентификатор                            : 128 (0x80)
Формат                                   : AC-3
Формат/Информация                        : Audio Coding 3
Продолжительность                        : 1 ч. 25 м.
Каналы                                   : 2 канала
Частота                                  : 48,0 КГц
Метод сжатия                             : С потерями
Язык                                     : English
Меню #1
Продолжительность                        : 1 ч. 25 м.
00:00:00.000                             : Chapter 1
00:02:57.480                             : Chapter 2
00:08:09.360                             : Chapter 3
00:14:07.080                             : Chapter 4
00:20:46.600                             : Chapter 5
00:34:48.320                             : Chapter 6
00:43:16.960                             : Chapter 7
01:04:12.120                             : Chapter 8
01:13:51.040                             : Chapter 9
01:19:07.080                             : Chapter 10
01:25:21.680                             : Chapter 11
List (Audio)                             : 0
Меню #2
Продолжительность                        : 1 ч. 25 м.
00:00:00.000                             : Chapter 1
00:00:02.680                             : Chapter 2
00:00:18.680                             : Chapter 3
00:00:24.360                             : Chapter 4
00:01:09.360                             : Chapter 5
00:01:24.360                             : Chapter 6
00:02:00.360                             : Chapter 7
00:02:20.960                             : Chapter 8
00:03:07.960                             : Chapter 9
00:03:28.960                             : Chapter 10
00:03:48.960                             : Chapter 11
List (Audio)                             : 0
Меню #3
Общее
Полное имя                               : D:\tltorrent загрузки\Glenn Hughes\Live In Wolverhampton 2\VTS_02_0.VOB
Формат                                   : MPEG-PS
Размер файла                             : 154 Кбайт
Продолжительность                        : 520 мс.
Общий поток                              : 2426 Кбит/сек
Видео
Идентификатор                            : 224 (0xE0)
Формат                                   : MPEG Video
Версия формата                           : Version 2
Профиль формата                          : [email protected]
Параметр BVOP формата                    : Да
Параметр матрицы формата                 : Выборочная
Продолжительность                        : 520 мс.
Максимальный битрейт                     : 2000 Кбит/сек
Ширина                                   : 720 пикселей
Высота                                   : 576 пикселей
Соотношение сторон                       : 4:3
Частота кадров                           : 25,000 кадров/сек
Стандарт вещания                         : PAL
Цветовое пространство                    : YUV
Субдискретизация насыщенности            : 4:2:0
Битовая глубина                          : 8 бит
Тип развёртки                            : Чересстрочная
Порядок развёртки                        : Верхнее поле первое
Метод сжатия                             : С потерями
Текст
Идентификатор                            : 189 (0xBD)-32 (0x20)
Формат                                   : RLE
Формат/Информация                        : Run-length encoding
Режим смешивания                         : DVD-Video
Задержка видео                           : -80 мс.
Меню
Общее
Полное имя                               : D:\tltorrent загрузки\Glenn Hughes\Live In Wolverhampton 2\VTS_02_1.VOB
Формат                                   : MPEG-PS
Размер файла                             : 1024 Мбайт
Продолжительность                        : 26 м.
Режим общего битрейта                    : Переменный
Общий поток                              : 5421 Кбит/сек
Видео
Идентификатор                            : 224 (0xE0)
Формат                                   : MPEG Video
Версия формата                           : Version 2
Профиль формата                          : [email protected]
Параметр BVOP формата                    : Да
Параметр матрицы формата                 : Выборочная
Продолжительность                        : 26 м.
Вид битрейта                             : Переменный
Битрейт                                  : 4993 Кбит/сек
Максимальный битрейт                     : 7500 Кбит/сек
Ширина                                   : 720 пикселей
Высота                                   : 576 пикселей
Соотношение сторон                       : 16:9
Частота кадров                           : 25,000 кадров/сек
Стандарт вещания                         : PAL
Цветовое пространство                    : YUV
Субдискретизация насыщенности            : 4:2:0
Битовая глубина                          : 8 бит
Тип развёртки                            : Чересстрочная
Порядок развёртки                        : Верхнее поле первое
Метод сжатия                             : С потерями
Бит/(Пиксели*Кадры)                      : 0.482
Размер потока                            : 943 Мбайт (92%)
Аудио
Идентификатор                            : 189 (0xBD)-128 (0x80)
Формат                                   : AC-3
Формат/Информация                        : Audio Coding 3
Расширение режима                        : CM (complete main)
Режим смешивания                         : DVD-Video
Продолжительность                        : 26 м.
Вид битрейта                             : Постоянный
Битрейт                                  : 320 Кбит/сек
Каналы                                   : 2 канала
Расположение каналов                     : Front: L R
Частота                                  : 48,0 КГц
Битовая глубина                          : 16 бит
Метод сжатия                             : С потерями
Размер потока                            : 60,4 Мбайт (6%)
Меню
Общее
Полное имя                               : D:\tltorrent загрузки\Glenn Hughes\Live In Wolverhampton 2\VTS_02_2.VOB
Формат                                   : MPEG-PS
Размер файла                             : 1024 Мбайт
Продолжительность                        : 26 м.
Режим общего битрейта                    : Переменный
Общий поток                              : 5428 Кбит/сек
Видео
Идентификатор                            : 224 (0xE0)
Формат                                   : MPEG Video
Версия формата                           : Version 2
Профиль формата                          : [email protected]
Параметр BVOP формата                    : Да
Параметр матрицы формата                 : Выборочная
Параметр GOP формата                     : M=3, N=15
Продолжительность                        : 26 м.
Вид битрейта                             : Переменный
Битрейт                                  : 5000 Кбит/сек
Максимальный битрейт                     : 7500 Кбит/сек
Ширина                                   : 720 пикселей
Высота                                   : 576 пикселей
Соотношение сторон                       : 16:9
Частота кадров                           : 25,000 кадров/сек
Стандарт вещания                         : PAL
Цветовое пространство                    : YUV
Субдискретизация насыщенности            : 4:2:0
Битовая глубина                          : 8 бит
Тип развёртки                            : Чересстрочная
Порядок развёртки                        : Верхнее поле первое
Метод сжатия                             : С потерями
Бит/(Пиксели*Кадры)                      : 0.482
Размер потока                            : 943 Мбайт (92%)
Аудио
Идентификатор                            : 189 (0xBD)-128 (0x80)
Формат                                   : AC-3
Формат/Информация                        : Audio Coding 3
Расширение режима                        : CM (complete main)
Режим смешивания                         : DVD-Video
Продолжительность                        : 26 м.
Вид битрейта                             : Постоянный
Битрейт                                  : 320 Кбит/сек
Каналы                                   : 2 канала
Расположение каналов                     : Front: L R
Частота                                  : 48,0 КГц
Битовая глубина                          : 16 бит
Метод сжатия                             : С потерями
Задержка видео                           : -832 мс.
Размер потока                            : 60,4 Мбайт (6%)
Меню
Общее
Полное имя                               : D:\tltorrent загрузки\Glenn Hughes\Live In Wolverhampton 2\VTS_02_3.VOB
Формат                                   : MPEG-PS
Размер файла                             : 1024 Мбайт
Продолжительность                        : 26 м.
Режим общего битрейта                    : Переменный
Общий поток                              : 5427 Кбит/сек
Видео
Идентификатор                            : 224 (0xE0)
Формат                                   : MPEG Video
Версия формата                           : Version 2
Профиль формата                          : [email protected]
Параметр BVOP формата                    : Да
Параметр матрицы формата                 : Выборочная
Параметр GOP формата                     : M=3, N=15
Продолжительность                        : 26 м.
Вид битрейта                             : Переменный
Битрейт                                  : 4999 Кбит/сек
Максимальный битрейт                     : 7500 Кбит/сек
Ширина                                   : 720 пикселей
Высота                                   : 576 пикселей
Соотношение сторон                       : 16:9
Частота кадров                           : 25,000 кадров/сек
Стандарт вещания                         : PAL
Цветовое пространство                    : YUV
Субдискретизация насыщенности            : 4:2:0
Битовая глубина                          : 8 бит
Тип развёртки                            : Чересстрочная
Порядок развёртки                        : Верхнее поле первое
Метод сжатия                             : С потерями
Бит/(Пиксели*Кадры)                      : 0.482
Размер потока                            : 943 Мбайт (92%)
Аудио
Идентификатор                            : 189 (0xBD)-128 (0x80)
Формат                                   : AC-3
Формат/Информация                        : Audio Coding 3
Расширение режима                        : CM (complete main)
Режим смешивания                         : DVD-Video
Продолжительность                        : 26 м.
Вид битрейта                             : Постоянный
Битрейт                                  : 320 Кбит/сек
Каналы                                   : 2 канала
Расположение каналов                     : Front: L R
Частота                                  : 48,0 КГц
Битовая глубина                          : 16 бит
Метод сжатия                             : С потерями
Задержка видео                           : -464 мс.
Размер потока                            : 60,4 Мбайт (6%)
Меню
Общее
Полное имя                               : D:\tltorrent загрузки\Glenn Hughes\Live In Wolverhampton 2\VTS_02_4.VOB
Формат                                   : MPEG-PS
Размер файла                             : 241 Мбайт
Продолжительность                        : 6 м. 12 с.
Режим общего битрейта                    : Переменный
Общий поток                              : 5427 Кбит/сек
Видео
Идентификатор                            : 224 (0xE0)
Формат                                   : MPEG Video
Версия формата                           : Version 2
Профиль формата                          : [email protected]
Параметр BVOP формата                    : Да
Параметр матрицы формата                 : Выборочная
Продолжительность                        : 6 м. 12 с.
Вид битрейта                             : Переменный
Битрейт                                  : 4999 Кбит/сек
Максимальный битрейт                     : 7500 Кбит/сек
Ширина                                   : 720 пикселей
Высота                                   : 576 пикселей
Соотношение сторон                       : 16:9
Частота кадров                           : 25,000 кадров/сек
Стандарт вещания                         : PAL
Цветовое пространство                    : YUV
Субдискретизация насыщенности            : 4:2:0
Битовая глубина                          : 8 бит
Тип развёртки                            : Чересстрочная
Порядок развёртки                        : Верхнее поле первое
Метод сжатия                             : С потерями
Бит/(Пиксели*Кадры)                      : 0.482
Размер потока                            : 222 Мбайт (92%)
Аудио
Идентификатор                            : 189 (0xBD)-128 (0x80)
Формат                                   : AC-3
Формат/Информация                        : Audio Coding 3
Расширение режима                        : CM (complete main)
Режим смешивания                         : DVD-Video
Продолжительность                        : 6 м. 12 с.
Вид битрейта                             : Постоянный
Битрейт                                  : 320 Кбит/сек
Каналы                                   : 2 канала
Расположение каналов                     : Front: L R
Частота                                  : 48,0 КГц
Битовая глубина                          : 16 бит
Метод сжатия                             : С потерями
Задержка видео                           : -504 мс.
Размер потока                            : 14,2 Мбайт (6%)
Меню
Общее
Полное имя                               : D:\tltorrent загрузки\Glenn Hughes\Live In Wolverhampton 2\VTS_03_0.BUP
Формат                                   : DVD Video
Профиль формата                          : Program
Размер файла                             : 18,0 Кбайт
Продолжительность                        : 1 м. 53 с.
Режим общего битрейта                    : Переменный
Общий поток                              : 1301 бит/сек
Видео
Идентификатор                            : 224 (0xE0)
Формат                                   : MPEG Video
Версия формата                           : Version 2
Продолжительность                        : 1 м. 53 с.
Вид битрейта                             : Переменный
Ширина                                   : 720 пикселей
Высота                                   : 576 пикселей
Соотношение сторон                       : 16:9
Частота кадров                           : 25,000 кадров/сек
Стандарт вещания                         : PAL
Метод сжатия                             : С потерями
Аудио
Идентификатор                            : 128 (0x80)
Формат                                   : AC-3
Формат/Информация                        : Audio Coding 3
Продолжительность                        : 1 м. 53 с.
Каналы                                   : 2 канала
Частота                                  : 48,0 КГц
Метод сжатия                             : С потерями
Язык                                     : English
Меню
Продолжительность                        : 1 м. 53 с.
00:00:00.000                             : Chapter 1
00:01:52.560                             : Chapter 2
List (Audio)                             : 0
Общее
Полное имя                               : D:\tltorrent загрузки\Glenn Hughes\Live In Wolverhampton 2\VTS_03_0.IFO
Формат                                   : DVD Video
Профиль формата                          : Program
Размер файла                             : 18,0 Кбайт
Продолжительность                        : 1 м. 53 с.
Режим общего битрейта                    : Переменный
Общий поток                              : 1301 бит/сек
Видео
Идентификатор                            : 224 (0xE0)
Формат                                   : MPEG Video
Версия формата                           : Version 2
Продолжительность                        : 1 м. 53 с.
Вид битрейта                             : Переменный
Ширина                                   : 720 пикселей
Высота                                   : 576 пикселей
Соотношение сторон                       : 16:9
Частота кадров                           : 25,000 кадров/сек
Стандарт вещания                         : PAL
Метод сжатия                             : С потерями
Аудио
Идентификатор                            : 128 (0x80)
Формат                                   : AC-3
Формат/Информация                        : Audio Coding 3
Продолжительность                        : 1 м. 53 с.
Каналы                                   : 2 канала
Частота                                  : 48,0 КГц
Метод сжатия                             : С потерями
Язык                                     : English
Меню
Продолжительность                        : 1 м. 53 с.
00:00:00.000                             : Chapter 1
00:01:52.560                             : Chapter 2
List (Audio)                             : 0
Общее
Полное имя                               : D:\tltorrent загрузки\Glenn Hughes\Live In Wolverhampton 2\VTS_03_0.VOB
Формат                                   : MPEG-PS
Размер файла                             : 154 Кбайт
Продолжительность                        : 520 мс.
Общий поток                              : 2426 Кбит/сек
Видео
Идентификатор                            : 224 (0xE0)
Формат                                   : MPEG Video
Версия формата                           : Version 2
Профиль формата                          : [email protected]
Параметр BVOP формата                    : Да
Параметр матрицы формата                 : Выборочная
Продолжительность                        : 520 мс.
Максимальный битрейт                     : 2000 Кбит/сек
Ширина                                   : 720 пикселей
Высота                                   : 576 пикселей
Соотношение сторон                       : 4:3
Частота кадров                           : 25,000 кадров/сек
Стандарт вещания                         : PAL
Цветовое пространство                    : YUV
Субдискретизация насыщенности            : 4:2:0
Битовая глубина                          : 8 бит
Тип развёртки                            : Чересстрочная
Порядок развёртки                        : Верхнее поле первое
Метод сжатия                             : С потерями
Текст
Идентификатор                            : 189 (0xBD)-32 (0x20)
Формат                                   : RLE
Формат/Информация                        : Run-length encoding
Режим смешивания                         : DVD-Video
Задержка видео                           : -80 мс.
Меню
Общее
Полное имя                               : D:\tltorrent загрузки\Glenn Hughes\Live In Wolverhampton 2\VTS_03_1.VOB
Формат                                   : MPEG-PS
Размер файла                             : 72,3 Мбайт
Продолжительность                        : 1 м. 53 с.
Режим общего битрейта                    : Переменный
Общий поток                              : 5352 Кбит/сек
Видео
Идентификатор                            : 224 (0xE0)
Формат                                   : MPEG Video
Версия формата                           : Version 2
Профиль формата                          : [email protected]
Параметр BVOP формата                    : Да
Параметр матрицы формата                 : Выборочная
Продолжительность                        : 1 м. 53 с.
Вид битрейта                             : Переменный
Битрейт                                  : 4926 Кбит/сек
Максимальный битрейт                     : 7500 Кбит/сек
Ширина                                   : 720 пикселей
Высота                                   : 576 пикселей
Соотношение сторон                       : 16:9
Частота кадров                           : 25,000 кадров/сек
Стандарт вещания                         : PAL
Цветовое пространство                    : YUV
Субдискретизация насыщенности            : 4:2:0
Битовая глубина                          : 8 бит
Тип развёртки                            : Чересстрочная
Порядок развёртки                        : Верхнее поле первое
Метод сжатия                             : С потерями
Бит/(Пиксели*Кадры)                      : 0.475
Размер потока                            : 66,5 Мбайт (92%)
Аудио
Идентификатор                            : 189 (0xBD)-128 (0x80)
Формат                                   : AC-3
Формат/Информация                        : Audio Coding 3
Профиль формата                          : Dolby Digital
Расширение режима                        : CM (complete main)
Режим смешивания                         : DVD-Video
Продолжительность                        : 1 м. 52 с.
Вид битрейта                             : Постоянный
Битрейт                                  : 320 Кбит/сек
Каналы                                   : 2 канала
Расположение каналов                     : Front: L R
Частота                                  : 48,0 КГц
Битовая глубина                          : 16 бит
Метод сжатия                             : С потерями
Размер потока                            : 4,31 Мбайт (6%)
Меню
Общее
Полное имя                               : D:\tltorrent загрузки\Glenn Hughes\Live In Wolverhampton 2\VTS_04_0.BUP
Формат                                   : DVD Video
Профиль формата                          : Program
Размер файла                             : 24,0 Кбайт
Продолжительность                        : 13 м.
Режим общего битрейта                    : Переменный
Общий поток                              : 244 бит/сек
Видео
Идентификатор                            : 224 (0xE0)
Формат                                   : MPEG Video
Версия формата                           : Version 2
Продолжительность                        : 13 м.
Вид битрейта                             : Переменный
Ширина                                   : 720 пикселей
Высота                                   : 576 пикселей
Соотношение сторон                       : 16:9
Частота кадров                           : 25,000 кадров/сек
Стандарт вещания                         : PAL
Метод сжатия                             : С потерями
Аудио
Идентификатор                            : 128 (0x80)
Формат                                   : AC-3
Формат/Информация                        : Audio Coding 3
Продолжительность                        : 13 м.
Каналы                                   : 2 канала
Частота                                  : 48,0 КГц
Метод сжатия                             : С потерями
Язык                                     : English
Меню
Продолжительность                        : 13 м.
00:00:00.000                             : Chapter 1
00:06:14.920                             : Chapter 2
00:13:25.160                             : Chapter 3
List (Audio)                             : 0
Общее
Полное имя                               : D:\tltorrent загрузки\Glenn Hughes\Live In Wolverhampton 2\VTS_04_0.IFO
Формат                                   : DVD Video
Профиль формата                          : Program
Размер файла                             : 24,0 Кбайт
Продолжительность                        : 13 м.
Режим общего битрейта                    : Переменный
Общий поток                              : 244 бит/сек
Видео
Идентификатор                            : 224 (0xE0)
Формат                                   : MPEG Video
Версия формата                           : Version 2
Продолжительность                        : 13 м.
Вид битрейта                             : Переменный
Ширина                                   : 720 пикселей
Высота                                   : 576 пикселей
Соотношение сторон                       : 16:9
Частота кадров                           : 25,000 кадров/сек
Стандарт вещания                         : PAL
Метод сжатия                             : С потерями
Аудио
Идентификатор                            : 128 (0x80)
Формат                                   : AC-3
Формат/Информация                        : Audio Coding 3
Продолжительность                        : 13 м.
Каналы                                   : 2 канала
Частота                                  : 48,0 КГц
Метод сжатия                             : С потерями
Язык                                     : English
Меню
Продолжительность                        : 13 м.
00:00:00.000                             : Chapter 1
00:06:14.920                             : Chapter 2
00:13:25.160                             : Chapter 3
List (Audio)                             : 0
Общее
Полное имя                               : D:\tltorrent загрузки\Glenn Hughes\Live In Wolverhampton 2\VTS_04_0.VOB
Формат                                   : MPEG-PS
Размер файла                             : 154 Кбайт
Продолжительность                        : 520 мс.
Общий поток                              : 2426 Кбит/сек
Видео
Идентификатор                            : 224 (0xE0)
Формат                                   : MPEG Video
Версия формата                           : Version 2
Профиль формата                          : [email protected]
Параметр BVOP формата                    : Да
Параметр матрицы формата                 : Выборочная
Продолжительность                        : 520 мс.
Максимальный битрейт                     : 2000 Кбит/сек
Ширина                                   : 720 пикселей
Высота                                   : 576 пикселей
Соотношение сторон                       : 4:3
Частота кадров                           : 25,000 кадров/сек
Стандарт вещания                         : PAL
Цветовое пространство                    : YUV
Субдискретизация насыщенности            : 4:2:0
Битовая глубина                          : 8 бит
Тип развёртки                            : Чересстрочная
Порядок развёртки                        : Верхнее поле первое
Метод сжатия                             : С потерями
Текст
Идентификатор                            : 189 (0xBD)-32 (0x20)
Формат                                   : RLE
Формат/Информация                        : Run-length encoding
Режим смешивания                         : DVD-Video
Задержка видео                           : -80 мс.
Меню
Общее
Полное имя                               : D:\tltorrent загрузки\Glenn Hughes\Live In Wolverhampton 2\VTS_04_1.VOB
Формат                                   : MPEG-PS
Размер файла                             : 375 Мбайт
Продолжительность                        : 13 м.
Режим общего битрейта                    : Переменный
Общий поток                              : 3904 Кбит/сек
Видео
Идентификатор                            : 224 (0xE0)
Формат                                   : MPEG Video
Версия формата                           : Version 2
Профиль формата                          : [email protected]
Параметр BVOP формата                    : Да
Параметр матрицы формата                 : По умолчанию
Параметр GOP формата                     : M=3, N=15
Продолжительность                        : 13 м.
Вид битрейта                             : Переменный
Битрейт                                  : 3506 Кбит/сек
Максимальный битрейт                     : 5000 Кбит/сек
Ширина                                   : 720 пикселей
Высота                                   : 576 пикселей
Соотношение сторон                       : 16:9
Частота кадров                           : 25,000 кадров/сек
Стандарт вещания                         : PAL
Цветовое пространство                    : YUV
Субдискретизация насыщенности            : 4:2:0
Битовая глубина                          : 8 бит
Тип развёртки                            : Чересстрочная
Порядок развёртки                        : Верхнее поле первое
Метод сжатия                             : С потерями
Бит/(Пиксели*Кадры)                      : 0.338
Размер потока                            : 337 Мбайт (90%)
Аудио
Идентификатор                            : 189 (0xBD)-128 (0x80)
Формат                                   : AC-3
Формат/Информация                        : Audio Coding 3
Расширение режима                        : CM (complete main)
Режим смешивания                         : DVD-Video
Продолжительность                        : 13 м.
Вид битрейта                             : Постоянный
Битрейт                                  : 320 Кбит/сек
Каналы                                   : 2 канала
Расположение каналов                     : Front: L R
Частота                                  : 48,0 КГц
Битовая глубина                          : 16 бит
Метод сжатия                             : С потерями
Размер потока                            : 30,7 Мбайт (8%)
Меню
Общее
Полное имя                               : D:\tltorrent загрузки\Glenn Hughes\Live In Wolverhampton 2\VTS_05_0.BUP
Формат                                   : DVD Video
Профиль формата                          : Program
Размер файла                             : 70,0 Кбайт
Продолжительность                        : 1 ч. 41 м.
Режим общего битрейта                    : Переменный
Общий поток                              : 94 бит/сек
Видео
Идентификатор                            : 224 (0xE0)
Формат                                   : MPEG Video
Версия формата                           : Version 2
Продолжительность                        : 1 ч. 41 м.
Вид битрейта                             : Переменный
Ширина                                   : 720 пикселей
Высота                                   : 576 пикселей
Соотношение сторон                       : 16:9
Частота кадров                           : 25,000 кадров/сек
Стандарт вещания                         : PAL
Метод сжатия                             : С потерями
Аудио
Идентификатор                            : 128 (0x80)
Формат                                   : AC-3
Формат/Информация                        : Audio Coding 3
Продолжительность                        : 1 ч. 41 м.
Каналы                                   : 2 канала
Частота                                  : 48,0 КГц
Метод сжатия                             : С потерями
Язык                                     : English
Меню #1
Продолжительность                        : 1 ч. 41 м.
00:00:00.000                             : Chapter 1
00:03:29.840                             : Chapter 2
00:10:06.320                             : Chapter 3
00:16:07.560                             : Chapter 4
00:26:48.120                             : Chapter 5
00:37:44.640                             : Chapter 6
00:45:06.200                             : Chapter 7
00:54:19.080                             : Chapter 8
00:59:13.440                             : Chapter 9
01:13:55.120                             : Chapter 10
01:22:56.240                             : Chapter 11
01:32:26.800                             : Chapter 12
01:41:13.360                             : Chapter 13
List (Audio)                             : 0
Меню #2
Продолжительность                        : 1 ч. 41 м.
00:00:00.000                             : Chapter 1
00:00:32.000                             : Chapter 2
00:01:13.000                             : Chapter 3
00:01:20.000                             : Chapter 4
00:01:30.000                             : Chapter 5
00:01:40.640                             : Chapter 6
00:02:08.640                             : Chapter 7
00:02:29.640                             : Chapter 8
00:02:34.200                             : Chapter 9
00:02:48.240                             : Chapter 10
00:02:58.240                             : Chapter 11
00:03:37.240                             : Chapter 12
00:03:45.480                             : Chapter 13
List (Audio)                             : 0
Меню #3
Общее
Полное имя                               : D:\tltorrent загрузки\Glenn Hughes\Live In Wolverhampton 2\VTS_05_0.IFO
Формат                                   : DVD Video
Профиль формата                          : Program
Размер файла                             : 70,0 Кбайт
Продолжительность                        : 1 ч. 41 м.
Режим общего битрейта                    : Переменный
Общий поток                              : 94 бит/сек
Видео
Идентификатор                            : 224 (0xE0)
Формат                                   : MPEG Video
Версия формата                           : Version 2
Продолжительность                        : 1 ч. 41 м.
Вид битрейта                             : Переменный
Ширина                                   : 720 пикселей
Высота                                   : 576 пикселей
Соотношение сторон                       : 16:9
Частота кадров                           : 25,000 кадров/сек
Стандарт вещания                         : PAL
Метод сжатия                             : С потерями
Аудио
Идентификатор                            : 128 (0x80)
Формат                                   : AC-3
Формат/Информация                        : Audio Coding 3
Продолжительность                        : 1 ч. 41 м.
Каналы                                   : 2 канала
Частота                                  : 48,0 КГц
Метод сжатия                             : С потерями
Язык                                     : English
Меню #1
Продолжительность                        : 1 ч. 41 м.
00:00:00.000                             : Chapter 1
00:03:29.840                             : Chapter 2
00:10:06.320                             : Chapter 3
00:16:07.560                             : Chapter 4
00:26:48.120                             : Chapter 5
00:37:44.640                             : Chapter 6
00:45:06.200                             : Chapter 7
00:54:19.080                             : Chapter 8
00:59:13.440                             : Chapter 9
01:13:55.120                             : Chapter 10
01:22:56.240                             : Chapter 11
01:32:26.800                             : Chapter 12
01:41:13.360                             : Chapter 13
List (Audio)                             : 0
Меню #2
Продолжительность                        : 1 ч. 41 м.
00:00:00.000                             : Chapter 1
00:00:32.000                             : Chapter 2
00:01:13.000                             : Chapter 3
00:01:20.000                             : Chapter 4
00:01:30.000                             : Chapter 5
00:01:40.640                             : Chapter 6
00:02:08.640                             : Chapter 7
00:02:29.640                             : Chapter 8
00:02:34.200                             : Chapter 9
00:02:48.240                             : Chapter 10
00:02:58.240                             : Chapter 11
00:03:37.240                             : Chapter 12
00:03:45.480                             : Chapter 13
List (Audio)                             : 0
Меню #3
Общее
Полное имя                               : D:\tltorrent загрузки\Glenn Hughes\Live In Wolverhampton 2\VTS_05_0.VOB
Формат                                   : MPEG-PS
Размер файла                             : 154 Кбайт
Продолжительность                        : 520 мс.
Общий поток                              : 2426 Кбит/сек
Видео
Идентификатор                            : 224 (0xE0)
Формат                                   : MPEG Video
Версия формата                           : Version 2
Профиль формата                          : [email protected]
Параметр BVOP формата                    : Да
Параметр матрицы формата                 : Выборочная
Продолжительность                        : 520 мс.
Максимальный битрейт                     : 2000 Кбит/сек
Ширина                                   : 720 пикселей
Высота                                   : 576 пикселей
Соотношение сторон                       : 4:3
Частота кадров                           : 25,000 кадров/сек
Стандарт вещания                         : PAL
Цветовое пространство                    : YUV
Субдискретизация насыщенности            : 4:2:0
Битовая глубина                          : 8 бит
Тип развёртки                            : Чересстрочная
Порядок развёртки                        : Верхнее поле первое
Метод сжатия                             : С потерями
Текст
Идентификатор                            : 189 (0xBD)-32 (0x20)
Формат                                   : RLE
Формат/Информация                        : Run-length encoding
Режим смешивания                         : DVD-Video
Задержка видео                           : -80 мс.
Меню
Общее
Полное имя                               : D:\tltorrent загрузки\Glenn Hughes\Live In Wolverhampton 2\VTS_05_1.VOB
Формат                                   : MPEG-PS
Размер файла                             : 1024 Мбайт
Продолжительность                        : 24 м.
Режим общего битрейта                    : Переменный
Общий поток                              : 5921 Кбит/сек
Видео
Идентификатор                            : 224 (0xE0)
Формат                                   : MPEG Video
Версия формата                           : Version 2
Профиль формата                          : [email protected]
Параметр BVOP формата                    : Да
Параметр матрицы формата                 : Выборочная
Продолжительность                        : 24 м.
Вид битрейта                             : Переменный
Битрейт                                  : 5483 Кбит/сек
Максимальный битрейт                     : 7000 Кбит/сек
Ширина                                   : 720 пикселей
Высота                                   : 576 пикселей
Соотношение сторон                       : 16:9
Частота кадров                           : 25,000 кадров/сек
Стандарт вещания                         : PAL
Цветовое пространство                    : YUV
Субдискретизация насыщенности            : 4:2:0
Битовая глубина                          : 8 бит
Тип развёртки                            : Чересстрочная
Порядок развёртки                        : Верхнее поле первое
Метод сжатия                             : С потерями
Бит/(Пиксели*Кадры)                      : 0.529
Размер потока                            : 948 Мбайт (93%)
Аудио
Идентификатор                            : 189 (0xBD)-128 (0x80)
Формат                                   : AC-3
Формат/Информация                        : Audio Coding 3
Расширение режима                        : CM (complete main)
Режим смешивания                         : DVD-Video
Продолжительность                        : 24 м.
Вид битрейта                             : Постоянный
Битрейт                                  : 320 Кбит/сек
Каналы                                   : 2 канала
Расположение каналов                     : Front: L R
Частота                                  : 48,0 КГц
Битовая глубина                          : 16 бит
Метод сжатия                             : С потерями
Размер потока                            : 55,3 Мбайт (5%)
Меню
Общее
Полное имя                               : D:\tltorrent загрузки\Glenn Hughes\Live In Wolverhampton 2\VTS_05_2.VOB
Формат                                   : MPEG-PS
Размер файла                             : 1024 Мбайт
Продолжительность                        : 24 м.
Режим общего битрейта                    : Переменный
Общий поток                              : 5927 Кбит/сек
Видео
Идентификатор                            : 224 (0xE0)
Формат                                   : MPEG Video
Версия формата                           : Version 2
Профиль формата                          : [email protected]
Параметр BVOP формата                    : Да
Параметр матрицы формата                 : Выборочная
Параметр GOP формата                     : M=3, N=15
Продолжительность                        : 24 м.
Вид битрейта                             : Переменный
Битрейт                                  : 5489 Кбит/сек
Максимальный битрейт                     : 7000 Кбит/сек
Ширина                                   : 720 пикселей
Высота                                   : 576 пикселей
Соотношение сторон                       : 16:9
Частота кадров                           : 25,000 кадров/сек
Стандарт вещания                         : PAL
Цветовое пространство                    : YUV
Субдискретизация насыщенности            : 4:2:0
Битовая глубина                          : 8 бит
Тип развёртки                            : Чересстрочная
Порядок развёртки                        : Верхнее поле первое
Метод сжатия                             : С потерями
Бит/(Пиксели*Кадры)                      : 0.529
Размер потока                            : 948 Мбайт (93%)
Аудио
Идентификатор                            : 189 (0xBD)-128 (0x80)
Формат                                   : AC-3
Формат/Информация                        : Audio Coding 3
Расширение режима                        : CM (complete main)
Режим смешивания                         : DVD-Video
Продолжительность                        : 24 м.
Вид битрейта                             : Постоянный
Битрейт                                  : 320 Кбит/сек
Каналы                                   : 2 канала
Расположение каналов                     : Front: L R
Частота                                  : 48,0 КГц
Битовая глубина                          : 16 бит
Метод сжатия                             : С потерями
Задержка видео                           : -544 мс.
Размер потока                            : 55,3 Мбайт (5%)
Меню
Общее
Полное имя                               : D:\tltorrent загрузки\Glenn Hughes\Live In Wolverhampton 2\VTS_05_3.VOB
Формат                                   : MPEG-PS
Размер файла                             : 1024 Мбайт
Продолжительность                        : 24 м.
Режим общего битрейта                    : Переменный
Общий поток                              : 5928 Кбит/сек
Видео
Идентификатор                            : 224 (0xE0)
Формат                                   : MPEG Video
Версия формата                           : Version 2
Профиль формата                          : [email protected]
Параметр BVOP формата                    : Да
Параметр матрицы формата                 : Выборочная
Параметр GOP формата                     : M=3, N=15
Продолжительность                        : 24 м.
Вид битрейта                             : Переменный
Битрейт                                  : 5490 Кбит/сек
Максимальный битрейт                     : 7000 Кбит/сек
Ширина                                   : 720 пикселей
Высота                                   : 576 пикселей
Соотношение сторон                       : 16:9
Частота кадров                           : 25,000 кадров/сек
Стандарт вещания                         : PAL
Цветовое пространство                    : YUV
Субдискретизация насыщенности            : 4:2:0
Битовая глубина                          : 8 бит
Тип развёртки                            : Чересстрочная
Порядок развёртки                        : Верхнее поле первое
Метод сжатия                             : С потерями
Бит/(Пиксели*Кадры)                      : 0.529
Размер потока                            : 948 Мбайт (93%)
Аудио
Идентификатор                            : 189 (0xBD)-128 (0x80)
Формат                                   : AC-3
Формат/Информация                        : Audio Coding 3
Расширение режима                        : CM (complete main)
Режим смешивания                         : DVD-Video
Продолжительность                        : 24 м.
Вид битрейта                             : Постоянный
Битрейт                                  : 320 Кбит/сек
Каналы                                   : 2 канала
Расположение каналов                     : Front: L R
Частота                                  : 48,0 КГц
Битовая глубина                          : 16 бит
Метод сжатия                             : С потерями
Задержка видео                           : -592 мс.
Размер потока                            : 55,3 Мбайт (5%)
Меню
Общее
Полное имя                               : D:\tltorrent загрузки\Glenn Hughes\Live In Wolverhampton 2\VTS_05_4.VOB
Формат                                   : MPEG-PS
Размер файла                             : 1024 Мбайт
Продолжительность                        : 24 м.
Режим общего битрейта                    : Переменный
Общий поток                              : 5928 Кбит/сек
Видео
Идентификатор                            : 224 (0xE0)
Формат                                   : MPEG Video
Версия формата                           : Version 2
Профиль формата                          : [email protected]
Параметр BVOP формата                    : Да
Параметр матрицы формата                 : Выборочная
Продолжительность                        : 24 м.
Вид битрейта                             : Переменный
Битрейт                                  : 5490 Кбит/сек
Максимальный битрейт                     : 7000 Кбит/сек
Ширина                                   : 720 пикселей
Высота                                   : 576 пикселей
Соотношение сторон                       : 16:9
Частота кадров                           : 25,000 кадров/сек
Стандарт вещания                         : PAL
Цветовое пространство                    : YUV
Субдискретизация насыщенности            : 4:2:0
Битовая глубина                          : 8 бит
Тип развёртки                            : Чересстрочная
Порядок развёртки                        : Верхнее поле первое
Метод сжатия                             : С потерями
Бит/(Пиксели*Кадры)                      : 0.529
Размер потока                            : 948 Мбайт (93%)
Аудио
Идентификатор                            : 189 (0xBD)-128 (0x80)
Формат                                   : AC-3
Формат/Информация                        : Audio Coding 3
Расширение режима                        : CM (complete main)
Режим смешивания                         : DVD-Video
Продолжительность                        : 24 м.
Вид битрейта                             : Постоянный
Битрейт                                  : 320 Кбит/сек
Каналы                                   : 2 канала
Расположение каналов                     : Front: L R
Частота                                  : 48,0 КГц
Битовая глубина                          : 16 бит
Метод сжатия                             : С потерями
Задержка видео                           : -472 мс.
Размер потока                            : 55,3 Мбайт (5%)
Меню
Общее
Полное имя                               : D:\tltorrent загрузки\Glenn Hughes\Live In Wolverhampton 2\VTS_05_5.VOB
Формат                                   : MPEG-PS
Размер файла                             : 195 Мбайт
Продолжительность                        : 4 м. 35 с.
Режим общего битрейта                    : Переменный
Общий поток                              : 5925 Кбит/сек
Видео
Идентификатор                            : 224 (0xE0)
Формат                                   : MPEG Video
Версия формата                           : Version 2
Профиль формата                          : [email protected]
Параметр BVOP формата                    : Да
Параметр матрицы формата                 : Выборочная
Параметр GOP формата                     : M=3, N=15
Продолжительность                        : 4 м. 35 с.
Вид битрейта                             : Переменный
Битрейт                                  : 5487 Кбит/сек
Максимальный битрейт                     : 7000 Кбит/сек
Ширина                                   : 720 пикселей
Высота                                   : 576 пикселей
Соотношение сторон                       : 16:9
Частота кадров                           : 25,000 кадров/сек
Стандарт вещания                         : PAL
Цветовое пространство                    : YUV
Субдискретизация насыщенности            : 4:2:0
Битовая глубина                          : 8 бит
Тип развёртки                            : Чересстрочная
Порядок развёртки                        : Верхнее поле первое
Метод сжатия                             : С потерями
Бит/(Пиксели*Кадры)                      : 0.529
Размер потока                            : 180 Мбайт (92%)
Аудио
Идентификатор                            : 189 (0xBD)-128 (0x80)
Формат                                   : AC-3
Формат/Информация                        : Audio Coding 3
Расширение режима                        : CM (complete main)
Режим смешивания                         : DVD-Video
Продолжительность                        : 4 м. 35 с.
Вид битрейта                             : Постоянный
Битрейт                                  : 320 Кбит/сек
Каналы                                   : 2 канала
Расположение каналов                     : Front: L R
Частота                                  : 48,0 КГц
Битовая глубина                          : 16 бит
Метод сжатия                             : С потерями
Задержка видео                           : -624 мс.
Размер потока                            : 10,5 Мбайт (5%)
Меню

_________________
Дураков на свете не много, но расставлены они так грамотно, что встречаются на каждом шагу.
Other forum [Profile] [PM]
Display posts from previous:    
Reply to topic

The time now is: Today 14:07

All times are GMT + 3 Hours



You cannot post new topics in this forum
You cannot reply to topics in this forum
You cannot edit your posts in this forum
You cannot delete your posts in this forum
You cannot vote in polls in this forum
You cannot attach files in this forum
You cannot download files in this forum