Today is a free download without charge Download

Блиндаж / Сезон 1 / Серии 1-4 (4) (Александр Горновский) [2011, драма, военный, DVDRip]

Reply to topic
 
Author
Message

nsa1977 ®

Gender:

Longevity: 11 years

Posts: 1470

Location: Пенза

Торрент-статистика

Post 23-Feb-2012 21:44

[Quote]

Блиндаж
Серии 1-4 (4)
-
-Год выпуска: 2011
Страна: Россия / Фаворит фильм-Жанр: драма, военный
Продолжительность: 00:51:00-Режиссер: Александр Горновский
Сценарий: Зоя Кудря, Михаил Шелехов
Продюсер: Анатолий Чижиков, Наталья Чижикова, Сергей Куликов
Оператор: Иван Поморин--В ролях: Ирина Рахманова, Игорь Хрипунов, Евгений Князев, Алексей Шевченков, Федор Лавров, Сергей Угрюмов, Кирилл Полухин, Евгений Атарик-Релиз на DVD: 21 февраля 2012, «Lizard Cinema Trade»- --Описание: Июль 1941 года. Идут ожесточенные бои под белорусским селом Любаши. Многие жители успевают скрыться в лесах, но некоторые оказываются прямо в эпицентре жаркой битвы. Не в силах сдержать натиск немецких войск, советская армия быстро сдает свои позиции, и фронт отодвигается дальше на восток.
Ослепший после взрыва, капитан Хлебников приходит в себя в окопном блиндаже. Понимая, что шансов уйти нет, он пытается застрелиться, но его находит оставшаяся в селе Серафима. Она решает помочь раненому солдату.
Вскоре к компании Хлебникова присоединяется немец-дезертир Хольц, райкомовец Демидович и Нохим, чудом выживший после массового расстрела евреев. Все участники необычной компании плохо ладят между собой, но понимая, что от их осторожности зависит жизнь Серафимы, которая с риском для жизни обеспечивает их всем необходимым, они стараются жить в мире.-Семпл |--Качество: DVDRip
Формат: AVI
Видео кодек: XviD
Аудио кодек: AC3
Видео: 720x400 (1.80:1), 25 fps, XviD build 50 ~1710 kbps avg, 0.24 bit/pixel
Аудио: 48 kHz, AC3 Dolby Digital, 2/0 (L,R) ch, ~192.00 kbps avg--

МИ

Общее
Полное имя : F:\Blindazh\Blindazh.(1.serija.iz.4).2011.O.DVDRip.ELEKTRI4KA.avi
Формат : AVI
Формат/Информация : Audio Video Interleave
Размер файла : 700 Мбайт
Продолжительность : 51 м.
Общий поток : 1912 Кбит/сек
Название фильма : Blindazh.(1.serija.iz.4).2011.O.DVDRip.ELEKTRI4KA
Режиссёр : ELEKTRO-Am
Программа кодирования : VirtualDubMod 1.5.10.2 (build 2540/release)
Правообладатель : ELEKTRI4KA
Видео
Идентификатор : 0
Формат : MPEG-4 Visual
Профиль формата : Advanced [email protected]
Параметр BVOP формата : 2
Параметр QPel формата : Нет
Параметр GMC формата : Без точки перехода
Параметр матрицы формата : Выборочная
Идентификатор кодека : XVID
Идентификатор кодека/Подсказка : XviD
Продолжительность : 51 м.
Битрейт : 1711 Кбит/сек
Ширина : 720 пикселей
Высота : 400 пикселей
Соотношение сторон : 16:9
Частота кадров : 25,000 кадров/сек
Цветовое пространство : YUV
Субдискретизация насыщенности : 4:2:0
Битовая глубина : 8 бит
Тип развёртки : Прогрессивная
Метод сжатия : С потерями
Бит/(Пиксели*Кадры) : 0.238
Размер потока : 626 Мбайт (89%)
Библиотека кодирования : XviD 1.2.1 (UTC 2008-12-04)
Аудио
Идентификатор : 1
Формат : AC-3
Формат/Информация : Audio Coding 3
Расширение режима : CM (complete main)
Идентификатор кодека : 2000
Продолжительность : 51 м.
Вид битрейта : Постоянный
Битрейт : 192 Кбит/сек
Каналы : 2 канала
Расположение каналов : Front: L R
Частота : 48,0 КГц
Битовая глубина : 16 бит
Метод сжатия : С потерями
Размер потока : 70,3 Мбайт (10%)
Выравнивание : Соединение по промежуткам
Продолжительность промежутка : 40 мс. (1,00 видеокадр)
Время предзагрузки промежутка : 512 мс.
-        Релиз:

_________________
Other forum [Profile] [PM]
Display posts from previous:    
Reply to topic

The time now is: Today 09:47

All times are GMT + 3 Hours



You cannot post new topics in this forum
You cannot reply to topics in this forum
You cannot edit your posts in this forum
You cannot delete your posts in this forum
You cannot vote in polls in this forum
You cannot attach files in this forum
You cannot download files in this forum