Today is a free download without charge Download

Великолепный Гоша ( Анатолий Солин)[1981-1985.,Отечественный мультфильм] DVDRip

Reply to topic
 
Author
Message

sashau ®

Gender:

Longevity: 8 years 10 months

Posts: 3497

Торрент-статистика

Post 13-Jan-2015 19:36

[Quote]

Великолепный Гоша - Год выпуска: 1981-1985
Жанр: Отечественные мультфильмы
Продолжительность: 10 х ~ 00:04:41
Режиссер: Анатолий Солин
Авторы сценария: В. Коклюшин, В. Альбинин
Композитор: Шандор Каллош
Описание:
Сборник комических фильмов о незадачливом Гоше, с которым вечно что-то случается...

Режиссер: Анатолий Солин
Актеры:
Гоша
Качество: SATRip
Формат: AVI
Видео кодек: XviD
Аудио кодек: AC3
Видео: 696x576 (1.21:1), 25 fps, XviD Final 1.0.3 (build 37) 1414 kbps avg, 0.14 bit/pixel
Аудио: 48 kHz, AC3 Dolby Digital, 2/0 (L,R) ch, 128.00 kbps avg

Список серий:

01. «Великолепный Гоша. История первая» (1981 г.)
02. «Великолепный Гоша. История вторая» (1981 г.)
03. «Великолепный Гоша. История третья» (1981 г.)
04. «Великолепный Гоша. История четвертая» (1982 г.)
05. «Великолепный Гоша. История пятая» (1982 г.)
06. «Великолепный Гоша. История шестая» (1982 г.)
07. «Великолепный Гоша. История седьмая» (1982 г.)
08. «Великолепный Гоша. История восьмая» (1983 г.)
09. «Великолепный Гоша. История девятая» (1984 г.)
10. «Великолепный Гоша. История десятая» (1985 г.)

MediaInfo:

Общее
Полное имя : Velikolepniy.Gosha.1981-1985.10.serij.iz.10.XviD.SATRip\Velikolepniy.Gosha.1981-1985.01.serij.iz.10.XviD.SATRip.avi
Формат : AVI
Формат/Информация : Audio Video Interleave
Размер файла : 36,8 Мбайт
Продолжительность : 3 м. 18 с.
Общий поток : 1552 Кбит/сек
Программа кодирования : VirtualDubMod 1.5.10.1 (build 2366/release)
Библиотека кодирования : VirtualDub build 29808/release
Видео
Идентификатор : 0
Формат : MPEG-4 Visual
Профиль формата : [email protected]
Параметр BVOP формата : 2
Параметр QPel формата : Нет
Параметр GMC формата : Без точки перехода
Параметр матрицы формата : Default (MPEG)
Идентификатор кодека : XVID
Идентификатор кодека/Подсказка : XviD
Продолжительность : 3 м. 18 с.
Битрейт : 1414 Кбит/сек
Ширина : 696 пикселей
Высота : 576 пикселей
Соотношение сторон : 1,208
Частота кадров : 25,000 кадров/сек
Цветовое пространство : YUV
Субдискретизация насыщенности : 4:2:0
Битовая глубина : 8 бит
Тип развёртки : Прогрессивная
Метод сжатия : С потерями
Бит/(Пиксели*Кадры) : 0.141
Размер потока : 33,5 Мбайт (91%)
Библиотека кодирования : XviD 1.0.3 (UTC 2004-12-20)
Аудио
Идентификатор : 1
Формат : AC-3
Формат/Информация : Audio Coding 3
Расширение режима : CM (complete main)
Параметр Endianness формата : Big
Идентификатор кодека : 2000
Продолжительность : 3 м. 18 с.
Вид битрейта : Постоянный
Битрейт : 128 Кбит/сек
Каналы : 2 канала
Расположение каналов : Front: L R
Частота : 48,0 КГц
Битовая глубина : 16 бит
Метод сжатия : С потерями
Размер потока : 3,03 Мбайт (8%)
Выравнивание : Разделение по промежуткам
Продолжительность промежутка : 40 мс. (1,00 видеокадр)
Время предзагрузки промежутка : 500 мс.
Скриншоты:
       
Other forum [Profile] [PM]
Similar theme
Forum Topic Author Torrent Replies Last Post
./templates/default/images/folder_dl.gif Обучающая и научно-популярная литература Самин Дмитрий - 100 великих композиторов [Тёшина Наталья, 2013 г., 96 kbps, MP3] Omen
1 | 0

0 | 665

0

2013-10-02 20:49
Omen Latest
Display posts from previous:    
Reply to topic

The time now is: Today 03:09

All times are GMT + 3 Hours



You cannot post new topics in this forum
You cannot reply to topics in this forum
You cannot edit your posts in this forum
You cannot delete your posts in this forum
You cannot vote in polls in this forum
You cannot attach files in this forum
You cannot download files in this forum