Today is a free download without charge Download

(Downtempo, Deep House) Samantha James - Subconscious, 2010, FLAC (tracks+.cue), lossless

Reply to topic
 
Author
Message

Paullo ®

Gender:

Longevity: 9 years

Posts: 393

Location: деактивировано, причина: - Последний визит: 2017-06-22 darkos_bot 12.06.19г

Торрент-статистика

Post 11-Jan-2011 00:21

[Quote]

Samantha James - Subconscious
Производство: US
Жанр: Downtempo, Deep House
Год выпуска альбома: 2010
Аудиокодек: FLAC
Тип рипа: tracks+cue
Битрейт аудио: lossless
Год выпуска издания: 2010
Лейбл издания: Om Records
Номер каталога: [OM-429]
Полный скан буклета: Нет
Продолжительность: 01:58:54

CD1:
01. Waves of Change (05:10)
02. Veil (05:54)
03. Satellites (05:18)
04. Amber Sky (03:16)
05. Subconscious (05:53)
06. Tonight (04:13)
07. Life is Waiting (04:11)
08. Illusions (05:14)
09. Tree of Life (04:55)
10. Free (03:40)
11. Find A Way (05:26)
12. Maybe Tomorrow (05:23)
13. Again and Again (03:49)
CD2:
01. Waves of Change (Andy Caldwell Dub Remix) (06:58)
02. Waves of Change (Kaskade Remix) (05:40)
03. Waves of Change (Nikola Gala Remix) (05:35)
04. Waves of Change (Kaskade Extended Remix) (07:22)
05. Waves of Change (Richard Grey Remix) (08:32)
06. Waves of Change (Kaskade Dub) (07:22)
07. Waves of Change (Valentin Huedo Cafe del Mar Remix) (07:31)
08. Waves of Change (Kaskade Extended Instrumental) (07:23)

Лог создания рипа

CD1

Exact Audio Copy V0.99 prebeta 5 from 4. May 2009
EAC extraction logfile from 14. September 2010, 9:24
Samantha James / Subconscious
Used drive : HL-DT-STDVD-RAM GH22NP20 Adapter: 3 ID: 0
Read mode : Secure
Utilize accurate stream : Yes
Defeat audio cache : Yes
Make use of C2 pointers : No
Read offset correction : 102
Overread into Lead-In and Lead-Out : No
Fill up missing offset samples with silence : Yes
Delete leading and trailing silent blocks : No
Null samples used in CRC calculations : No
Used interface : Native Win32 interface for Win NT & 2000
Gap handling : Appended to previous track
Used output format : User Defined Encoder
Selected bitrate : 768 kBit/s
Quality : High
Add ID3 tag : No
Command line compressor : C:\Program Files\Exact Audio Copy\FLAC\FLAC.EXE
Additional command line options : -6 -V -T "ARTIST=%a" -T "TITLE=%t" -T "ALBUM=%g" -T "DATE=%y" -T "TRACKNUMBER=%n" -T "GENRE=%m" -T "COMMENT=%e" %s -o %d
TOC of the extracted CD
Track | Start | Length | Start sector | End sector
---------------------------------------------------------
1 | 0:00.00 | 5:10.40 | 0 | 23289
2 | 5:10.40 | 5:54.01 | 23290 | 49840
3 | 11:04.41 | 5:18.49 | 49841 | 73739
4 | 16:23.15 | 3:16.40 | 73740 | 88479
5 | 19:39.55 | 5:53.37 | 88480 | 114991
6 | 25:33.17 | 4:13.47 | 114992 | 134013
7 | 29:46.64 | 4:11.00 | 134014 | 152838
8 | 33:57.64 | 5:14.69 | 152839 | 176457
9 | 39:12.58 | 4:55.74 | 176458 | 198656
10 | 44:08.57 | 3:40.15 | 198657 | 215171
11 | 47:48.72 | 5:26.34 | 215172 | 239655
12 | 53:15.31 | 5:23.61 | 239656 | 263941
13 | 58:39.17 | 3:49.60 | 263942 | 281176
Track 1
Filename C:\Documents and Settings\Administrator\Desktop\What\New CDs\Samantha James - Subconscious - 01. Waves of Change.wav
Pre-gap length 0:00:02.00
Peak level 98.8 %
Track quality 100.0 %
Test CRC 64E9C6EE
Copy CRC 64E9C6EE
Cannot be verified as accurate (confidence 2) [75E28435], AccurateRip returned [87268F82]
Copy OK
Track 2
Filename C:\Documents and Settings\Administrator\Desktop\What\New CDs\Samantha James - Subconscious - 02. Veil.wav
Peak level 98.8 %
Track quality 100.0 %
Test CRC 71C4021C
Copy CRC 71C4021C
Cannot be verified as accurate (confidence 2) [A0260BB0], AccurateRip returned [53642FAC]
Copy OK
Track 3
Filename C:\Documents and Settings\Administrator\Desktop\What\New CDs\Samantha James - Subconscious - 03. Satellites.wav
Peak level 98.8 %
Track quality 100.0 %
Test CRC 09F29009
Copy CRC 09F29009
Cannot be verified as accurate (confidence 2) [5DD6018D], AccurateRip returned [8FB97881]
Copy OK
Track 4
Filename C:\Documents and Settings\Administrator\Desktop\What\New CDs\Samantha James - Subconscious - 04. Amber Sky.wav
Peak level 98.8 %
Track quality 100.0 %
Test CRC 67359CFD
Copy CRC 67359CFD
Cannot be verified as accurate (confidence 2) [B7B203FE], AccurateRip returned [C20864A6]
Copy OK
Track 5
Filename C:\Documents and Settings\Administrator\Desktop\What\New CDs\Samantha James - Subconscious - 05. Subconscious.wav
Peak level 98.8 %
Track quality 100.0 %
Test CRC AD089EA7
Copy CRC AD089EA7
Cannot be verified as accurate (confidence 2) [26DE191B], AccurateRip returned [39E8EFCE]
Copy OK
Track 6
Filename C:\Documents and Settings\Administrator\Desktop\What\New CDs\Samantha James - Subconscious - 06. Tonight (ft. Messertraum,JB Ekl).wav
Peak level 98.8 %
Track quality 100.0 %
Test CRC 6258954A
Copy CRC 6258954A
Cannot be verified as accurate (confidence 2) [FDB68491], AccurateRip returned [F000DD65]
Copy OK
Track 7
Filename C:\Documents and Settings\Administrator\Desktop\What\New CDs\Samantha James - Subconscious - 07. Life is Waiting.wav
Peak level 98.8 %
Track quality 100.0 %
Test CRC FC6F3318
Copy CRC FC6F3318
Cannot be verified as accurate (confidence 2) [C839FF78], AccurateRip returned [57631911]
Copy OK
Track 8
Filename C:\Documents and Settings\Administrator\Desktop\What\New CDs\Samantha James - Subconscious - 08. Illusions.wav
Peak level 98.8 %
Track quality 100.0 %
Test CRC DEDECF73
Copy CRC DEDECF73
Cannot be verified as accurate (confidence 2) [80A94D89], AccurateRip returned [71FCD145]
Copy OK
Track 9
Filename C:\Documents and Settings\Administrator\Desktop\What\New CDs\Samantha James - Subconscious - 09. Tree of Life.wav
Peak level 98.8 %
Track quality 100.0 %
Test CRC F95CF572
Copy CRC F95CF572
Cannot be verified as accurate (confidence 2) [7597F1FA], AccurateRip returned [53FBF0D7]
Copy OK
Track 10
Filename C:\Documents and Settings\Administrator\Desktop\What\New CDs\Samantha James - Subconscious - 10. Free.wav
Peak level 98.8 %
Track quality 100.0 %
Test CRC 2732BD8E
Copy CRC 2732BD8E
Cannot be verified as accurate (confidence 2) [0971A675], AccurateRip returned [A5C7F66D]
Copy OK
Track 11
Filename C:\Documents and Settings\Administrator\Desktop\What\New CDs\Samantha James - Subconscious - 11. Find A Way.wav
Peak level 98.8 %
Track quality 100.0 %
Test CRC FCEA8EE4
Copy CRC FCEA8EE4
Cannot be verified as accurate (confidence 2) [8DFA6639], AccurateRip returned [CD9812DA]
Copy OK
Track 12
Filename C:\Documents and Settings\Administrator\Desktop\What\New CDs\Samantha James - Subconscious - 12. Maybe Tomorrow.wav
Peak level 98.8 %
Track quality 100.0 %
Test CRC 610307ED
Copy CRC 610307ED
Cannot be verified as accurate (confidence 2) [B38ACEF2], AccurateRip returned [6F2C7C7F]
Copy OK
Track 13
Filename C:\Documents and Settings\Administrator\Desktop\What\New CDs\Samantha James - Subconscious - 13. Again and Again.wav
Peak level 93.8 %
Track quality 99.9 %
Test CRC 7F00D233
Copy CRC 7F00D233
Cannot be verified as accurate (confidence 2) [A75B4273], AccurateRip returned [759933D6]
Copy OK
No tracks could be verified as accurate
You may have a different pressing from the one(s) in the database
No errors occurred
End of status report

CD2

Exact Audio Copy V0.99 prebeta 5 from 4. May 2009
EAC extraction logfile from 14. September 2010, 10:57
Samantha James / Subconscious
Used drive : HL-DT-STDVD-RAM GH22NP20 Adapter: 3 ID: 0
Read mode : Secure
Utilize accurate stream : Yes
Defeat audio cache : Yes
Make use of C2 pointers : No
Read offset correction : 102
Overread into Lead-In and Lead-Out : No
Fill up missing offset samples with silence : Yes
Delete leading and trailing silent blocks : No
Null samples used in CRC calculations : No
Used interface : Native Win32 interface for Win NT & 2000
Gap handling : Appended to previous track
Used output format : User Defined Encoder
Selected bitrate : 768 kBit/s
Quality : High
Add ID3 tag : No
Command line compressor : C:\Program Files\Exact Audio Copy\FLAC\FLAC.EXE
Additional command line options : -6 -V -T "ARTIST=%a" -T "TITLE=%t" -T "ALBUM=%g" -T "DATE=%y" -T "TRACKNUMBER=%n" -T "GENRE=%m" -T "COMMENT=%e" %s -o %d
TOC of the extracted CD
Track | Start | Length | Start sector | End sector
---------------------------------------------------------
1 | 0:00.00 | 6:58.45 | 0 | 31394
2 | 6:58.45 | 5:40.33 | 31395 | 56927
3 | 12:39.03 | 5:35.08 | 56928 | 82060
4 | 18:14.11 | 7:22.18 | 82061 | 115228
5 | 25:36.29 | 8:32.15 | 115229 | 153643
6 | 34:08.44 | 7:22.18 | 153644 | 186811
7 | 41:30.62 | 7:31.26 | 186812 | 220662
8 | 49:02.13 | 7:23.48 | 220663 | 253935
Track 1
Filename C:\Documents and Settings\Administrator\Desktop\What\New CDs\Samantha James - Subconscious - 01. Waves of Change (Andy Caldwell Dub Remix).wav
Pre-gap length 0:00:02.00
Peak level 100.0 %
Track quality 100.0 %
Test CRC B92A1A24
Copy CRC B92A1A24
Track not present in AccurateRip database
Copy OK
Track 2
Filename C:\Documents and Settings\Administrator\Desktop\What\New CDs\Samantha James - Subconscious - 02. Waves of Change (Kaskade Remix).wav
Peak level 96.8 %
Track quality 100.0 %
Test CRC 29D02298
Copy CRC 29D02298
Track not present in AccurateRip database
Copy OK
Track 3
Filename C:\Documents and Settings\Administrator\Desktop\What\New CDs\Samantha James - Subconscious - 03. Waves of Change (Nikola Gala Remix).wav
Peak level 94.8 %
Track quality 100.0 %
Test CRC 6C8579B0
Copy CRC 6C8579B0
Track not present in AccurateRip database
Copy OK
Track 4
Filename C:\Documents and Settings\Administrator\Desktop\What\New CDs\Samantha James - Subconscious - 04. Waves of Change (Kaskade Extended Remix).wav
Peak level 96.7 %
Track quality 100.0 %
Test CRC 87E7D1F8
Copy CRC 87E7D1F8
Track not present in AccurateRip database
Copy OK
Track 5
Filename C:\Documents and Settings\Administrator\Desktop\What\New CDs\Samantha James - Subconscious - 05. Waves of Change (Richard Grey Remix).wav
Peak level 98.8 %
Track quality 100.0 %
Test CRC 9C0D7EFA
Copy CRC 9C0D7EFA
Track not present in AccurateRip database
Copy OK
Track 6
Filename C:\Documents and Settings\Administrator\Desktop\What\New CDs\Samantha James - Subconscious - 06. Waves of Change (Kaskade Dub).wav
Peak level 96.7 %
Track quality 100.0 %
Test CRC 26D774BC
Copy CRC 26D774BC
Track not present in AccurateRip database
Copy OK
Track 7
Filename C:\Documents and Settings\Administrator\Desktop\What\New CDs\Samantha James - Subconscious - 07. Waves of Change (Valentin Huedo Cafe del Mar Remix).wav
Peak level 94.8 %
Track quality 100.0 %
Test CRC DFDB85D8
Copy CRC DFDB85D8
Track not present in AccurateRip database
Copy OK
Track 8
Filename C:\Documents and Settings\Administrator\Desktop\What\New CDs\Samantha James - Subconscious - 08. Waves of Change (Kaskade Extended Instrumental).wav
Peak level 96.7 %
Track quality 99.9 %
Test CRC 66CE7AE5
Copy CRC 66CE7AE5
Track not present in AccurateRip database
Copy OK
None of the tracks are present in the AccurateRip database
No errors occurred
End of status report

Содержание индексной карты (.CUE)

CD1

REM DATE 2010
REM DISCID BA0EA50D
REM COMMENT "ExactAudioCopy v0.99pb5"
PERFORMER "Samantha James"
TITLE "Subconscious"
FILE "Samantha James - Subconscious - 01. Waves of Change.wav" WAVE
TRACK 01 AUDIO
TITLE "Waves of Change"
PERFORMER "Samantha James"
FLAGS DCP
INDEX 01 00:00:00
FILE "Samantha James - Subconscious - 02. Veil.wav" WAVE
TRACK 02 AUDIO
TITLE "Veil"
PERFORMER "Samantha James"
FLAGS DCP
INDEX 01 00:00:00
FILE "Samantha James - Subconscious - 03. Satellites.wav" WAVE
TRACK 03 AUDIO
TITLE "Satellites"
PERFORMER "Samantha James"
FLAGS DCP
INDEX 01 00:00:00
FILE "Samantha James - Subconscious - 04. Amber Sky.wav" WAVE
TRACK 04 AUDIO
TITLE "Amber Sky"
PERFORMER "Samantha James"
FLAGS DCP
INDEX 01 00:00:00
FILE "Samantha James - Subconscious - 05. Subconscious.wav" WAVE
TRACK 05 AUDIO
TITLE "Subconscious"
PERFORMER "Samantha James"
FLAGS DCP
INDEX 01 00:00:00
FILE "Samantha James - Subconscious - 06. Tonight (ft. Messertraum,JB Ekl).wav" WAVE
TRACK 06 AUDIO
TITLE "Tonight (ft. Messertraum/JB Ekl)"
PERFORMER "Samantha James"
FLAGS DCP
INDEX 01 00:00:00
FILE "Samantha James - Subconscious - 07. Life is Waiting.wav" WAVE
TRACK 07 AUDIO
TITLE "Life is Waiting"
PERFORMER "Samantha James"
FLAGS DCP
INDEX 01 00:00:00
FILE "Samantha James - Subconscious - 08. Illusions.wav" WAVE
TRACK 08 AUDIO
TITLE "Illusions"
PERFORMER "Samantha James"
FLAGS DCP
INDEX 01 00:00:00
FILE "Samantha James - Subconscious - 09. Tree of Life.wav" WAVE
TRACK 09 AUDIO
TITLE "Tree of Life"
PERFORMER "Samantha James"
FLAGS DCP
INDEX 01 00:00:00
FILE "Samantha James - Subconscious - 10. Free.wav" WAVE
TRACK 10 AUDIO
TITLE "Free"
PERFORMER "Samantha James"
FLAGS DCP
INDEX 01 00:00:00
FILE "Samantha James - Subconscious - 11. Find A Way.wav" WAVE
TRACK 11 AUDIO
TITLE "Find A Way"
PERFORMER "Samantha James"
FLAGS DCP
INDEX 01 00:00:00
FILE "Samantha James - Subconscious - 12. Maybe Tomorrow.wav" WAVE
TRACK 12 AUDIO
TITLE "Maybe Tomorrow"
PERFORMER "Samantha James"
FLAGS DCP
INDEX 01 00:00:00
FILE "Samantha James - Subconscious - 13. Again and Again.wav" WAVE
TRACK 13 AUDIO
TITLE "Again and Again"
PERFORMER "Samantha James"
FLAGS DCP
INDEX 01 00:00:00

CD2

REM DATE 2010
REM DISCID 620D3908
REM COMMENT "ExactAudioCopy v0.99pb5"
PERFORMER "Samantha James"
TITLE "Subconscious"
FILE "Samantha James - Subconscious - 01. Waves of Change (Andy Caldwell Dub Remix).wav" WAVE
TRACK 01 AUDIO
TITLE "Waves of Change (Andy Caldwell Dub Remix)"
PERFORMER "Samantha James"
FLAGS DCP
INDEX 01 00:00:00
FILE "Samantha James - Subconscious - 02. Waves of Change (Kaskade Remix).wav" WAVE
TRACK 02 AUDIO
TITLE "Waves of Change (Kaskade Remix)"
PERFORMER "Samantha James"
FLAGS DCP
INDEX 01 00:00:00
FILE "Samantha James - Subconscious - 03. Waves of Change (Nikola Gala Remix).wav" WAVE
TRACK 03 AUDIO
TITLE "Waves of Change (Nikola Gala Remix)"
PERFORMER "Samantha James"
FLAGS DCP
INDEX 01 00:00:00
FILE "Samantha James - Subconscious - 04. Waves of Change (Kaskade Extended Remix).wav" WAVE
TRACK 04 AUDIO
TITLE "Waves of Change (Kaskade Extended Remix) "
PERFORMER "Samantha James"
FLAGS DCP
INDEX 01 00:00:00
FILE "Samantha James - Subconscious - 05. Waves of Change (Richard Grey Remix).wav" WAVE
TRACK 05 AUDIO
TITLE "Waves of Change (Richard Grey Remix)"
PERFORMER "Samantha James"
FLAGS DCP
INDEX 01 00:00:00
FILE "Samantha James - Subconscious - 06. Waves of Change (Kaskade Dub).wav" WAVE
TRACK 06 AUDIO
TITLE "Waves of Change (Kaskade Dub)"
PERFORMER "Samantha James"
FLAGS DCP
INDEX 01 00:00:00
FILE "Samantha James - Subconscious - 07. Waves of Change (Valentin Huedo Cafe del Mar Remix).wav" WAVE
TRACK 07 AUDIO
TITLE "Waves of Change (Valentin Huedo Cafe del Mar Remix)"
PERFORMER "Samantha James"
FLAGS DCP
INDEX 01 00:00:00
FILE "Samantha James - Subconscious - 08. Waves of Change (Kaskade Extended Instrumental).wav" WAVE
TRACK 08 AUDIO
TITLE "Waves of Change (Kaskade Extended Instrumental)"
PERFORMER "Samantha James"
FLAGS DCP
INDEX 01 00:00:00

Лог проверки качества

CD1

AUDIOCHECKER v2.0 beta (build 457) - by Dester - [email protected]
~~~~~~~~~~~~~~~~~~~~~~~~~~~~~~~~~~
-=== DO NOT EDIT THIS FILE! ===-
Path: ...\CD1
01 -=- Samantha James - Subconscious - 01. Waves of Change.flac -=- CDDA (100%)
02 -=- Samantha James - Subconscious - 02. Veil.flac -=- CDDA (100%)
03 -=- Samantha James - Subconscious - 03. Satellites.flac -=- CDDA (99%)
04 -=- Samantha James - Subconscious - 04. Amber Sky.flac -=- CDDA (100%)
05 -=- Samantha James - Subconscious - 05. Subconscious.flac -=- CDDA (100%)
06 -=- Samantha James - Subconscious - 06. Tonight (ft. Messertraum,JB Ekl).flac -=- CDDA (100%)
07 -=- Samantha James - Subconscious - 07. Life is Waiting.flac -=- CDDA (100%)
08 -=- Samantha James - Subconscious - 08. Illusions.flac -=- CDDA (100%)
09 -=- Samantha James - Subconscious - 09. Tree of Life.flac -=- CDDA (100%)
10 -=- Samantha James - Subconscious - 10. Free.flac -=- CDDA (100%)
11 -=- Samantha James - Subconscious - 11. Find A Way.flac -=- CDDA (100%)
12 -=- Samantha James - Subconscious - 12. Maybe Tomorrow.flac -=- CDDA (100%)
13 -=- Samantha James - Subconscious - 13. Again and Again.flac -=- CDDA (99%)
Summary 99,85% CDDA
28345140

CD2

AUDIOCHECKER v2.0 beta (build 457) - by Dester - [email protected]
~~~~~~~~~~~~~~~~~~~~~~~~~~~~~~~~~~
-=== DO NOT EDIT THIS FILE! ===-
Path: ...\CD2
01 -=- Samantha James - Subconscious - 01. Waves of Change (Andy Caldwell Dub Remix).flac -=- CDDA (100%)
02 -=- Samantha James - Subconscious - 02. Waves of Change (Kaskade Remix).flac -=- CDDA (100%)
03 -=- Samantha James - Subconscious - 03. Waves of Change (Nikola Gala Remix).flac -=- CDDA (100%)
04 -=- Samantha James - Subconscious - 04. Waves of Change (Kaskade Extended Remix).flac -=- CDDA (100%)
05 -=- Samantha James - Subconscious - 05. Waves of Change (Richard Grey Remix).flac -=- CDDA (100%)
06 -=- Samantha James - Subconscious - 06. Waves of Change (Kaskade Dub).flac -=- CDDA (100%)
07 -=- Samantha James - Subconscious - 07. Waves of Change (Valentin Huedo Cafe del Mar Remix).flac -=- CDDA (100%)
08 -=- Samantha James - Subconscious - 08. Waves of Change (Kaskade Extended Instrumental).flac -=- CDDA (100%)
Summary 100,00% CDDA
13940932

_________________
сами мы не местные...
Other forum [Profile] [PM]
Display posts from previous:    
Reply to topic

The time now is: Today 05:15

All times are GMT + 3 Hours



You cannot post new topics in this forum
You cannot reply to topics in this forum
You cannot edit your posts in this forum
You cannot delete your posts in this forum
You cannot vote in polls in this forum
You cannot attach files in this forum
You cannot download files in this forum