Today is a free download without charge Download

Тимати - Капсула / Timati (Егор Абраменко) [2014, Россия, короткометражка, WEB-DL 1080p, Master] + Original Rus

Reply to topic
 
Author
Message

Omen ®

Longevity: 8 years 10 months

Posts: 181086

Торрент-статистика

Post 13-Jan-2015 15:00

[Quote]

Тимати - Капсула / Timati
Страна: Россия
Жанр: короткометражка
Год выпуска: 2014
Продолжительность: 00:24:52
Перевод: Не требуется
Cубтитры: нет
Оригинальная аудиодорожка: русский
Режиссер: Егор Абраменко
В ролях: Тимати, Екатерина Вилкова, Павел Мурашов, Матвей Мельников, Андрей Закурский, Достонбек Исламов, Захария Салливан, Патвакан Аракелян, Константин Матафонов, София Нур Хаким
Описание: Я предлагаю вам бесплатный аттракцион — это билет внутрь моей головы, в самые потаенные участки сознания в момент творческого процесса», — рассказал Тимати. «Маршрут проходит через бессвязную череду моих личных эмоций, где радость сменяет гнев, а через страх приходит ощущение счастья, и только лишь достигнув самого дна, я могу услышать тихие шаги своей Музы. Мне часто задают вопрос: «Из чего состоит творческий процесс?» Этот фильм наглядно покажет, что, зачастую, он состоит из полного хаоса, в котором из ничего рождается что-то, что порой лишено всякой логики, и может как понравится, так и вызвать чувство полного отторжения. Я абсолютно не претендую на роль Зигмунда Фрейда, просто попытался раскрыть, и зафиксировать на пленку все то, что в происходит внутри меня, когда я занят своим любимым делом.
Сэмпл: http://multi-up.com/1026296
Тип релиза: WEB-DL 1080p
Контейнер: MOV
Видео: avc, 1920x1080, 23.9 Mbps, 25.000 fps
Аудио: aac, 256 Kbps, 48.0 KHz, 2ch

MediaInfo

General
Complete name : P:\КЛИПЫ\Тимати - Капсула.mov
Format : MPEG-4
Format profile : QuickTime
Codec ID : qt
File size : 4.19 GiB
Duration : 24mn 52s
Overall bit rate : 24.1 Mbps
Encoded date : UTC 2014-12-14 20:52:23
Tagged date : UTC 2014-12-15 00:05:47
Writing library : Apple QuickTime
Media/UUID : 89DECA67-60B0-4CF8-8290-66F9C2589E09
Video
ID : 1
Format : AVC
Format/Info : Advanced Video Codec
Format profile : [email protected]
Format settings, CABAC : No
Format settings, ReFrames : 2 frames
Codec ID : avc1
Codec ID/Info : Advanced Video Coding
Duration : 24mn 52s
Bit rate : 23.9 Mbps
Width : 1 888 pixels
Original width : 1 920 pixels
Height : 1 062 pixels
Original height : 1 080 pixels
Display aspect ratio : 16:9
Frame rate mode : Constant
Frame rate : 25.000 fps
Color space : YUV
Chroma subsampling : 4:2:0
Bit depth : 8 bits
Scan type : Progressive
Bits/(Pixel*Frame) : 0.476
Stream size : 4.15 GiB (99%)
Title : Ћбработчик видео Apple
Language : English
Encoded date : UTC 2014-12-15 00:04:25
Tagged date : UTC 2014-12-15 00:05:47
Color primaries : BT.709
Transfer characteristics : BT.709
Matrix coefficients : BT.709
Audio
ID : 2
Format : AAC
Format/Info : Advanced Audio Codec
Format profile : LC
Codec ID : 40
Duration : 24mn 52s
Source duration : 24mn 52s
Bit rate mode : Constant
Bit rate : 256 Kbps
Channel(s) : 2 channels
Channel positions : Front: L R
Sampling rate : 48.0 KHz
Compression mode : Lossy
Stream size : 45.7 MiB (1%)
Source stream size : 45.7 MiB (1%)
Title : Ћбработчик звука Apple
Language : English
Encoded date : UTC 2014-12-15 00:04:25
Tagged date : UTC 2014-12-15 00:05:47
Other
ID : 3
Type : Time code
Format : QuickTime TC
Duration : 24mn 52s
Time code of first frame : 01:00:00:00
Time code settings : Striped
Title : Ћбработчик временного кода
Language : English
Encoded date : UTC 2014-12-15 00:05:47
Tagged date : UTC 2014-12-15 00:05:47

Скриншоты

Other forum [Profile] [PM]
Display posts from previous:    
Reply to topic

The time now is: Today 21:31

All times are GMT + 3 Hours



You cannot post new topics in this forum
You cannot reply to topics in this forum
You cannot edit your posts in this forum
You cannot delete your posts in this forum
You cannot vote in polls in this forum
You cannot attach files in this forum
You cannot download files in this forum