Today is a free download without charge Download

13 убийц / 13 assassins / Jusan-nin no shikaku (Такаси Миике / Takashi Miike) [2010, Япония, Великобритания, боевик, драма, приключения, DVD9] R5 «Новый Диск»

Reply to topic
 
Author
Message

voovaz ®

Gender:

Longevity: 9 years 5 months

Posts: 87

Торрент-статистика

Post 23-Feb-2012 01:54

[Quote]

-13 убийц / 13 assassins / Jusan-nin no shikaku -Страна: Япония, Великобритания
Студия: Asahi Broadcasting Corporation (ABC), Dentsu, Higashinippon Broadcasting Co., Hiroshima Home TV, Hokkaido Television Broadcasting Co. (HTB), Kyushu Asahi Broadcasting Co., Nagoya Broadcasting Network (NBN), Recorded Picture Company (RPC), Sedic International, Shizuoka Asahi Television Co. (SATV), Shogakukan Inc., The Asahi Shimbun Newspaper, Toho Company, Tsutaya Group, TV Asahi, Yahoo Japan
Жанр: боевик, драма, приключения
Год выпуска: 2010
Мировая премьера: 9 сентября 2010
Российская премьера: 6 октября 2011, «Русский репортаж»
Дата выхода DVD: 23 февраля 2012, «Новый Диск»
Продолжительность: 02:00:02
Перевод: Профессиональный (многоголосый закадровый) [Лицензия]
Cубтитры: нет-Режиссер: Такаси Миике / Takashi Miike-В ролях: Кодзи Якусё, Такаюки Ямада, Юсуке Исейа, Горо Инагаки, Микидзиро Хира, Хироки Мацуката, Икки Савамура, Арата Фурута, Цуеши Ихара-Описание: Действие ленты помещено в эпоху сегунов, а расскажет картина о тайной миссии неких 13 убийц уничтожить злого правителя, выполнить которую оказывается не так-то просто, поскольку численность телохранителей этого злодея в десять раз превосходит количество людей, покушающихся на его жизнь.-Бонусы: Анонсы- -Релиз группы: -Качество: DVD9 R5
Формат: DVD-Video
Видео кодек: MPEG2
Аудио кодек: AC3
Видео: PAL 16:9 (720x576(0.581)) MPEG Video, 25,000 кадр/сек, 6025 Кбит/сек
Аудио: Russian (Dolby AC3, 6 ch) 448 Кбит/сек, 48,0 КГц-
-

DVDInfo

Title:
Size: 6.51 Gb ( 6 825 422 KBytes ) - DVD-9
Enabled regions: 1, 2, 3, 4, 5, 6, 7, 8
VTS_01 :
Play Length: 00:00:15
Video: PAL 4:3 (720x576) VBR
Audio:
Not specified (Dolby AC3, 2 ch)
VTS_02 :
Play Length: 00:00:08
Video: PAL 16:9 (720x576) VBR, Auto Pan&Scan
Audio:
Not specified (Dolby AC3, 2 ch)
VTS_03 :
Play Length: 00:00:12
Video: PAL 16:9 (720x576) VBR, Auto Pan&Scan
Audio:
Not specified (Dolby AC3, 2 ch)
VTS_04 :
Play Length: 00:02:20
Video: PAL 4:3 (720x576) VBR
Audio:
Not specified (Dolby AC3, 2 ch)
VTS_05 :
Play Length: 00:01:47
Video: PAL 16:9 (720x576) VBR, Auto Pan&Scan
Audio:
Not specified (Dolby AC3, 2 ch)
VTS_06 :
Play Length: 00:01:12
Video: PAL 16:9 (720x576) VBR, Auto Pan&Scan
Audio:
Not specified (Dolby AC3, 2 ch)
VTS_07 :
Play Length: 00:02:06
Video: PAL 4:3 (720x576) VBR
Audio:
Not specified (Dolby AC3, 2 ch)
VTS_08 :
Play Length: 00:01:30
Video: PAL 16:9 (720x576) VBR, Auto Pan&Scan
Audio:
Not specified (Dolby AC3, 2 ch)
VTS_09 :
Play Length: 00:02:34
Video: PAL 16:9 (720x576) VBR, Auto Pan&Scan
Audio:
Not specified (Dolby AC3, 2 ch)
VTS_10 :
Play Length: 00:02:03
Video: PAL 16:9 (720x576) VBR, Auto Pan&Scan
Audio:
Not specified (Dolby AC3, 2 ch)
VTS_11 :
Play Length: 00:02:33
Video: PAL 16:9 (720x576) VBR, Auto Pan&Scan
Audio:
Not specified (Dolby AC3, 2 ch)
VTS_12 :
Play Length: 00:02:02
Video: PAL 16:9 (720x576) VBR, Auto Pan&Scan
Audio:
Not specified (Dolby AC3, 2 ch)
VTS_13 :
Play Length: 02:00:02
Video: PAL 16:9 (720x576) VBR, Auto Pan&Scan
Audio:
Russian (Dolby AC3, 6 ch)

MediaInfo

Общее
Полное имя : G:\Новинки 2012\13.ubijts.2010.DVD9\VIDEO_TS\VTS_13_1.VOB
Формат : MPEG-PS
Размер файла : 1024 Мбайт
Продолжительность : 21 м.
Режим общего битрейта : Переменный
Общий поток : 6605 Кбит/сек
Видео
Идентификатор : 224 (0xE0)
Формат : MPEG Video
Версия формата : Version 2
Профиль формата : [email protected]
Параметр BVOP формата : Да
Параметр матрицы формата : По умолчанию
Параметр GOP формата : M=3, N=12
Продолжительность : 21 м.
Вид битрейта : Переменный
Битрейт : 6025 Кбит/сек
Максимальный битрейт : 7800 Кбит/сек
Ширина : 720 пикселей
Высота : 576 пикселей
Соотношение сторон : 16:9
Частота кадров : 25,000 кадров/сек
Стандарт вещания : PAL
Цветовое пространство : YUV
Субдискретизация насыщенности : 4:2:0
Битовая глубина : 8 бит
Тип развёртки : Прогрессивная
Метод сжатия : С потерями
Бит/(Пиксели*Кадры) : 0.581
Размер потока : 934 Мбайт (91%)
Аудио
Идентификатор : 189 (0xBD)-128 (0x80)
Формат : AC-3
Формат/Информация : Audio Coding 3
Расширение режима : CM (complete main)
Режим смешивания : DVD-Video
Продолжительность : 21 м.
Вид битрейта : Постоянный
Битрейт : 448 Кбит/сек
Каналы : 6 каналов
Расположение каналов : Front: L C R, Side: L R, LFE
Частота : 48,0 КГц
Битовая глубина : 16 бит
Метод сжатия : С потерями
Размер потока : 69,4 Мбайт (7%)

Скриншоты меню

     

Скриншоты фильма

               
-
-
-
-
Other forum [Profile] [PM]
Display posts from previous:    
Reply to topic

The time now is: Today 12:03

All times are GMT + 3 Hours



You cannot post new topics in this forum
You cannot reply to topics in this forum
You cannot edit your posts in this forum
You cannot delete your posts in this forum
You cannot vote in polls in this forum
You cannot attach files in this forum
You cannot download files in this forum