Today is a free download without charge Download

Расплата / The Debt (Джон Мэдден / John Madden) [2010, США, триллер, драма, DVD9] R5 «Двадцатый Век Фокс СНГ»

Reply to topic
 
Author
Message

voovaz ®

Gender:

Longevity: 9 years 5 months

Posts: 87

Торрент-статистика

Post 23-Feb-2012 00:06

[Quote]

-Расплата / The Debt -Страна: США
Студия: Marv Films, Pioneer Pictures
Жанр: триллер, драма
Год выпуска: 2010
Мировая премьера: 4 сентября 2010
Российская премьера: 14 июля 2011, «UPI»
Дата выхода DVD: 23 февраля 2012, «Двадцатый Век Фокс СНГ»
Дата выхода Blu-Ray: 23 февраля 2012, «Двадцатый Век Фокс СНГ»
Продолжительность: 01:48:44
Перевод: Профессиональный (дублированный) [Лицензия]
Cубтитры: английские, эстонские, латышские, литовские, украинские
Оригинальная аудиодорожка: английский-Режиссер: Джон Мэдден / John Madden-В ролях: Хелен Миррен, Сэм Уортингтон, Джессика Честейн, Киаран Хайндс, Том Уилкинсон, Мартон Чокаш, Еспер Кристенсен, Адар Бек, Ницан Шаррон, Роми Абулафиа-Описание: В фильме рассказывается о трёх молодых агентах «Моссада» на секретном задании, которые в 1965 году похищают и убивают известного нацистского преступника. Тридцать лет спустя на Украине объявляется человек, обвинённый в нацизме, и одному из бывших агентов приходится вернуться к своей деятельности, чтобы докопаться до правды.-Бонусы: Комментарий к фильму режиссера Джона Мэддена и продюсера Криса Тайкера, филм "THE DEBT" изнутри, Берлинское дело треугольник в центре "THE DEBT"- -Релиз группы: -Качество: DVD9 R5
Формат: DVD-Video
Видео кодек: MPEG2
Аудио кодек: AC3
Видео: PAL 16:9 (720x576(0.620)) MPEG Video, 25,000 кадр/сек, 6431 Кбит/сек
Аудио #1: English (Dolby AC3, 6 ch) 448 Кбит/сек, 48,0 КГц
Аудио #2: Russian (Dolby AC3, 6 ch) 384 Кбит/сек, 48,0 КГц
Аудио #3: English (Dolby AC3, 2 ch) 192 Кбит/сек, 48,0 КГц-
-

DVDInfo

Title:
Size: 6.49 Gb ( 6 808 818 KBytes ) - DVD-9
Enabled regions: 1, 2, 3, 4, 5, 6, 7, 8
VTS_01 :
Play Length:
Video: PAL 16:9 (720x576) VBR, Auto Pan&Scan
VTS_02 :
Play Length: 01:48:44
Video: PAL 16:9 (720x576) VBR, Auto Pan&Scan
Audio:
English (Dolby AC3, 6 ch)
Russian (Dolby AC3, 6 ch)
English (Dolby AC3, 2 ch)
Subtitles:
English
Estonian
Latvian
Lithuanian
Ukrainian
English
English
VTS_03 :
Play Length: 00:03:10+00:02:14
Video: PAL 16:9 (720x576) VBR, Auto Pan&Scan
Audio:
English (Dolby AC3, 2 ch)
Subtitles:
English
Russian
VTS_04 :
Play Length: 00:00:12
Video: PAL 16:9 (720x576) VBR, Auto Pan&Scan
Audio:
English (Dolby AC3, 2 ch)
Subtitles:
English
Russian
VTS_05 :
Play Length: 00:01:52
Video: PAL 16:9 (720x576) VBR, Auto Pan&Scan
Audio:
English (Dolby AC3, 2 ch)
Subtitles:
Russian
VTS_06 :
Play Length: 00:00:08
Video: PAL 16:9 (720x576) VBR, Auto Pan&Scan
Audio:
English (Dolby AC3, 2 ch)
VTS_07 :
Play Length: 00:02:20
Video: PAL 16:9 (720x576) VBR, Auto Pan&Scan
Audio:
English (Dolby AC3, 2 ch)
VTS_08 :
Play Length:
Video: PAL 16:9 (720x576) VBR, Auto Pan&Scan
VTS_09 :
Play Length:
Video: PAL 16:9 (720x576) VBR, Auto Pan&Scan
VTS_10 :
Play Length:
Video: PAL 16:9 (720x576) VBR, Auto Pan&Scan

MediaInfo

Общее
Полное имя : G:\Новинки 2012\Rasplata.2011.DVD9\VIDEO_TS\VTS_02_2.VOB
Формат : MPEG-PS
Размер файла : 1024 Мбайт
Продолжительность : 18 м.
Режим общего битрейта : Переменный
Общий поток : 7607 Кбит/сек
Видео
Идентификатор : 224 (0xE0)
Формат : MPEG Video
Версия формата : Version 2
Профиль формата : [email protected]
Параметр BVOP формата : Да
Параметр матрицы формата : Выборочная
Продолжительность : 18 м.
Вид битрейта : Переменный
Битрейт : 6431 Кбит/сек
Максимальный битрейт : 9800 Кбит/сек
Ширина : 720 пикселей
Высота : 576 пикселей
Соотношение сторон : 16:9
Частота кадров : 25,000 кадров/сек
Стандарт вещания : PAL
Цветовое пространство : YUV
Субдискретизация насыщенности : 4:2:0
Битовая глубина : 8 бит
Тип развёртки : Прогрессивная
Порядок развёртки : Верхнее поле первое
Метод сжатия : С потерями
Бит/(Пиксели*Кадры) : 0.620
Размер потока : 866 Мбайт (85%)
Аудио #1
Идентификатор : 189 (0xBD)-128 (0x80)
Формат : AC-3
Формат/Информация : Audio Coding 3
Расширение режима : CM (complete main)
Режим смешивания : DVD-Video
Продолжительность : 18 м.
Вид битрейта : Постоянный
Битрейт : 448 Кбит/сек
Каналы : 6 каналов
Расположение каналов : Front: L C R, Side: L R, LFE
Частота : 48,0 КГц
Битовая глубина : 16 бит
Метод сжатия : С потерями
Задержка видео : -640 мс.
Размер потока : 60,3 Мбайт (6%)
Аудио #2
Идентификатор : 189 (0xBD)-129 (0x81)
Формат : AC-3
Формат/Информация : Audio Coding 3
Расширение режима : CM (complete main)
Режим смешивания : DVD-Video
Продолжительность : 18 м.
Вид битрейта : Постоянный
Битрейт : 384 Кбит/сек
Каналы : 6 каналов
Расположение каналов : Front: L C R, Side: L R, LFE
Частота : 48,0 КГц
Битовая глубина : 16 бит
Метод сжатия : С потерями
Задержка видео : -640 мс.
Размер потока : 51,7 Мбайт (5%)
Аудио #3
Идентификатор : 189 (0xBD)-130 (0x82)
Формат : AC-3
Формат/Информация : Audio Coding 3
Расширение режима : CM (complete main)
Режим смешивания : DVD-Video
Продолжительность : 18 м.
Вид битрейта : Постоянный
Битрейт : 192 Кбит/сек
Каналы : 2 канала
Расположение каналов : Front: L R
Частота : 48,0 КГц
Битовая глубина : 16 бит
Метод сжатия : С потерями
Задержка видео : -544 мс.
Размер потока : 25,8 Мбайт (3%)
Текст #1
Идентификатор : 189 (0xBD)-37 (0x25)
Формат : RLE
Формат/Информация : Run-length encoding
Режим смешивания : DVD-Video
Продолжительность : 18 м.
Задержка видео : 1 с. 80 мс.
Текст #2
Идентификатор : 189 (0xBD)-32 (0x20)
Формат : RLE
Формат/Информация : Run-length encoding
Режим смешивания : DVD-Video
Текст #3
Идентификатор : 189 (0xBD)-33 (0x21)
Формат : RLE
Формат/Информация : Run-length encoding
Режим смешивания : DVD-Video

Скриншоты меню

           

Скриншоты фильма

               

Скриншоты доп. материалов

           
-
-
-
-
Other forum [Profile] [PM]
Display posts from previous:    
Reply to topic

The time now is: Today 04:06

All times are GMT + 3 Hours



You cannot post new topics in this forum
You cannot reply to topics in this forum
You cannot edit your posts in this forum
You cannot delete your posts in this forum
You cannot vote in polls in this forum
You cannot attach files in this forum
You cannot download files in this forum