Today is a free download without charge Download

Королевские зайцы (Владимир Полковников) [1960 г., мультфильм, DVB-AVC]

Reply to topic
 
Author
Message

Omen ®

Longevity: 8 years 11 months

Posts: 181086

Торрент-статистика

Post 12-Jan-2015 21:00

[Quote]

Королевские зайцы
Жанр: мультфильм
Год выпуска: 1960
Продолжительность: 00:19:37
Субтитры: русские (Teletext)
Режиссёр: Владимир Полковников
Описание: мультфильм о том, как юноша нанимается к королю заячьим пастухом. По дороге он спасает старушку, которая дарит ему волшебную дудочку. Теперь парень может гонять туда-сюда не только зайцев, но и самого короля ...
Доп. информация: по мотивам сказки Асбьернсена

Релиз группы:
Трансляция спутникового канала:

Качество видео: DVB
Формат видео: MPEG-TS
Видео: MPEG4 Video (H264), [email protected] (4:3), анаморф, 25 fps, 2900 kbps
Аудио: MPEG Audio, 2 сh, 48 kHz, 192 kbps

MediaInfo

General
ID : 1 (0x1)
Complete name : D:\Королевские зайцы. (1960)_DVB by SLuMeP.ts
Format : MPEG-TS
File size : 455 MiB
Duration : 19mn 37s
Overall bit rate mode : Variable
Overall bit rate : 3 240 Kbps
Video
ID : 2811 (0xAFB)
Menu ID : 1 (0x1)
Format : AVC
Format/Info : Advanced Video Codec
Format profile : [email protected]
Format settings, CABAC : Yes
Format settings, ReFrames : 3 frames
Codec ID : 27
Duration : 19mn 37s
Bit rate : 2 886 Kbps
Width : 720 pixels
Height : 576 pixels
Display aspect ratio : 4:3
Frame rate : 25.000 fps
Standard : Component
Color space : YUV
Chroma subsampling : 4:2:0
Bit depth : 8 bits
Scan type : Progressive
Bits/(Pixel*Frame) : 0.278
Stream size : 405 MiB (89%)
Color primaries : BT.601 PAL
Transfer characteristics : BT.470 System B, BT.470 System G
Matrix coefficients : BT.601
Audio
ID : 2812 (0xAFC)
Menu ID : 1 (0x1)
Format : MPEG Audio
Format version : Version 1
Format profile : Layer 2
Codec ID : 3
Duration : 19mn 37s
Bit rate mode : Constant
Bit rate : 192 Kbps
Channel(s) : 2 channels
Sampling rate : 48.0 KHz
Compression mode : Lossy
Delay relative to video : -40ms
Stream size : 27.0 MiB (6%)
Language : Russian
Text #1
ID : 2813 (0xAFD)-100
Menu ID : 1 (0x1)
Format : Teletext
Language : Russian
Text #2
ID : 2813 (0xAFD)-888
Menu ID : 1 (0x1)
Format : Teletext Subtitle
Language : Russian
Menu
ID : 256 (0x100)
Menu ID : 1 (0x1)
Duration : 19mn 37s
List : 2811 (0xAFB) (AVC) / 2812 (0xAFC) (MPEG Audio, Russian) / 2813 (0xAFD) ()
Language : / Russian

Скриншоты


Other forum [Profile] [PM]
Display posts from previous:    
Reply to topic

The time now is: Today 13:34

All times are GMT + 3 Hours



You cannot post new topics in this forum
You cannot reply to topics in this forum
You cannot edit your posts in this forum
You cannot delete your posts in this forum
You cannot vote in polls in this forum
You cannot attach files in this forum
You cannot download files in this forum