Сегодня идет свободное скачивание без начисления Download

Вселенная Марвел Комикс / Marvel Comics Universe (1985-2014) BDRip [1080p] [Фильмография] [Часть 2]

Ответить на тему
 
Автор
Сообщение

Omen ®

Стаж: 6 лет

Сообщений: 184329

Торрент-статистика

Пост 12-Янв-2015 12:35

[Цитировать]

Вселенная Марвел Комикс
Marvel Comics Universe
(1985-2014)

[Фильмография] [Часть 2]
- Производство: США
Год выпуска: 1985-2014
Жанр: Экшн, Боевик, Фантастика, Триллер, Комедия, Приключения
Режиссер: Энтони Руссо, Джо Руссо, Марк Уэбб, Брайан Сингер, Джеймс Ганн
Актеры: Крис Эванс, Скарлетт Йоханссон, Энтони Маки, Себастьян Стэн, Сэмюэл Л. Джексон, Роберт Редфорд, Эндрю Гарфилд, Эмма Стоун, Джейми Фокс, Дэйн ДеХаан, Хью Джекман, Джеймс МакЭвой, Майкл Фассбендер, Дженнифер Лоуренс, Холли Берри, Крис Прэтт, Зои Салдана, Дэйв Батиста, Брэдли Купер, Вин Дизель, Ли Пейс, Майкл Рукер
Продолжительность: 02:15:54 | 02:21:35 | 02:11:35 | 02:00:51
Перевод: Дублированный, Многоголосый закадровый, Двухголосый закадровый, Одноголосый закадровый
Язык субтитров: Русские, Английские, Украинские...
Описание фильма:
Marvel Comics (от англ. marvel — чудо) — американская компания, издающая комиксы, подразделение корпорации «Marvel Entertainment». Получившая среди поклонников комиксов прозвище «Дом идей», «Marvel» наиболее известна такими сериями комиксов, как «Фантастическая четвёрка», «Человек-паук», «Невероятный Халк», «Железный человек», «Сорвиголова», «Серебряный Сёрфер», «Призрачный гонщик», «Доктор Стрэндж», «Тор», «Капитан Америка» и «Люди Икс». Большинство персонажей комиксов «Marvel» обитают в одной вымышленной вселенной, получившей название Земля-616.
В разное время на большие и малые экраны, выходили фильмы по комиксам Марвел. Это были экранизации разных историй о супергероях и не только. Это были одиночные экранизации или состоящие из нескольких частей.
Президент Marvel Studios Кевин Фейдж упомянул, что предлагалось назвать эту серию фильмов, как «Marvel Cinema Universe», но выбрали другой термин — «Marvel Cinematic Universe». Первые фильмы распространялись с помощью Paramount Pictures и Universal Pictures. Начиная с 2012 года, дистрибьютором фильмов становится «Walt Disney Pictures», купившая к этому времени компанию «Marvel Entertainment», которая стала подразделением «The Walt Disney Company».
Ожидается:
  • 2015
  • Мстители: Эра Альтрона
  • Фантастическая четвёрка
  • Человек-муравей
    2016
  • Дэдпул
  • Первый мститель 3: Гражданская война
  • Люди Икс: Апокалипсис
  • Доктор Стрэндж
  • Зловещая шестерка
Видеокодек: MPEG-4 AVC/H.264
Качество видео: BDRip 1080p- -

2014 - Первый мститель: Другая война / Captain America: The Winter Soldier BDRip | 1080p

-Первый мститель: Другая война / Captain America: The Winter Soldier (2014) BDRip- Производство: США
Жанр: Фантастика, Боевик, Приключения
Перевод: Дублированный
Субтитры: Вшитые (отключаемые)
Язык субтитров: Русские (Forced, Blu-ray EUR), Русские (Blu-ray EUR), Русские (Commentary, Blu-ray EUR), Английские (Forced), Английские, Английские(SDH)
Дата мировой премьеры: 13 марта 2014
Дата российской премьеры: 3 апреля 2014
Дата выхода DVD релиза: 12 августа 2014
Режиссер: Энтони Руссо, Джо Руссо
Продюсер: Кевин Файги, Виктория Алонсо
Актеры: Крис Эванс, Скарлетт Йоханссон, Энтони Маки, Себастьян Стэн, Сэмюэл Л. Джексон, Роберт Редфорд, Фрэнк Грилло, Коби Смолдерс, Эмили ВанКэмп, Максимилиано Эрнандес
Описание фильма:
После беспрецедентных событий, впервые собравших вместе команду Мстителей, Стив Роджерс, известный также как Капитан Америка, оседает в Вашингтоне и пытается приспособиться к жизни в современном мире. Но покой этому герою только снится — пытаясь помочь коллеге из агентства Щ. И. Т, Стив оказывается в центре событий, грозящих катастрофой мирового масштаба. Для того, чтобы разоблачить злодейский заговор, Капитан Америка объединяется с Черной вдовой. К ним также присоединяется новый соратник, известный как Сокол, однако никто из них даже не подозревает, на что способен новый враг.

Продолжительность: 02:15:54
Качество видео: BDRip
Чаптеры: Сохранены и подписаны оригинальные чаптеры как на Blu-ray
Видеокодек: MPEG-4 AVC/H.264
Битрейт видео: ~17300 kbps
Размер кадра: 1920x800
Аудио1: Русский AC3, 3/2 (L,C,R,l,r) + LFE ch, ~640.00 kbps avg | Дубляж, Blu-ray EUR
Аудио3: Английский DTS, 3/2 (L,C,R,l,r) + LFE ch, ~1536.00 kbps avg | Оригинал
Аудио3: Английский AC3, 2/0 (L,R) ch, ~192.00 kbps avg | Commentary with Directors Anthony & Joe Russo and Screenwriters Christopher Markus & Stephen McFeely-

MediaInfo:

General
Complete name : O:\Marvel Comics.Part.2\Первый мститель. Другая война.mkv
Format : Matroska
File size : 19.0 GiB
Duration : 2h 15mn
Overall bit rate : 20.1 Mbps
Movie name : Captain America: The Winter Soldier (2014)
Encoded date : UTC 2014-08-03 23:08:03
Writing application : mkvmerge v3.4.0 ('Rapunzel') built on May 15 2010 09:38:20
Writing library : libebml v0.8.0 + libmatroska v0.9.0
Video
ID : 1
Format : AVC
Format/Info : Advanced Video Codec
Format profile : [url=mailto:[email protected]][email protected][/url]
Format settings, CABAC : Yes
Format settings, ReFrames : 5 frames
Muxing mode : Container [email protected]
Codec ID : V_MPEG4/ISO/AVC
Duration : 2h 15mn
Bit rate : 17.3 Mbps
Width : 1 920 pixels
Height : 800 pixels
Display aspect ratio : 2.40:1
Frame rate : 23.976 fps
Resolution : 8 bits
Colorimetry : 4:2:0
Scan type : Progressive
Bits/(Pixel*Frame) : 0.470
Stream size : 16.4 GiB (86%)
Title : Captain America: The Winter Soldier (2014)
Writing library : x264 core 142 r2431+42 c69a006 tMod [[email protected] X86_64]
Encoding settings : cabac=1 / ref=5 / deblock=1:-3:-3 / analyse=0x3:0x133 / me=tesa / subme=10 / psy=1 / fade_compensate=0.00 / psy_rd=1.00:0.00 / mixed_ref=1 / me_range=24 / chroma_me=1 / trellis=2 / 8x8dct=1 / cqm=0 / deadzone=21,11 / fast_pskip=0 / chroma_qp_offset=-2 / threads=12 / lookahead_threads=2 / sliced_threads=0 / nr=0 / decimate=0 / interlaced=0 / bluray_compat=0 / constrained_intra=0 / fgo=0 / bframes=8 / b_pyramid=2 / b_adapt=2 / b_bias=0 / direct=3 / weightb=1 / open_gop=0 / weightp=2 / keyint=250 / keyint_min=23 / scenecut=40 / intra_refresh=0 / rc_lookahead=60 / rc=crf / mbtree=0 / crf=15.5000 / qcomp=0.65 / qpmin=0:0:0 / qpmax=69:69:69 / qpstep=4 / vbv_maxrate=62500 / vbv_bufsize=78125 / crf_max=0.0 / nal_hrd=none / filler=0 / ip_ratio=1.30 / pb_ratio=1.20 / aq=4:0.80 / aq-sensitivity=10.00 / aq-factor=1.00:1.00:1.00 / aq2=0 / aq3=0 / zones=95,691,crf=12/775,1000,crf=11/5003,5083,crf=12/6414,6735,crf=12/7149,7212,crf=12/7427,8214,crf=13/11180,11261,crf=12/28558,28785,crf=12/28865,28927,crf=11/32367,32397,crf=11/32550,32708,crf=13/53776,54364,crf=12/96000,97350,crf=13/148891,148938,crf=11/150119,150156,crf=11/162207,162265,crf=12/162351,162356,crf=12/162422,162435,crf=12/162465,162498,crf=12/162798,162825,crf=12/169110,169127,crf=12/173184,173241,crf=11/173329,173435,crf=12/174339,174380,crf=12/174610,174710,crf=12/175593,175648,crf=12/185271,185446,crf=12/194719,195050,crf=13/195154,195266,crf=12
Language : English
Audio #1
ID : 2
Format : AC-3
Format/Info : Audio Coding 3
Codec ID : A_AC3
Duration : 2h 15mn
Bit rate mode : Constant
Bit rate : 640 Kbps
Channel(s) : 6 channels
Channel positions : Front: L C R, Surround: L R, LFE
Sampling rate : 48.0 KHz
Stream size : 622 MiB (3%)
Title : AC3 5.1 @ 640 kbps - DUB, Blu-ray EUR
Language : Russian
Audio #2
ID : 3
Format : DTS
Format/Info : Digital Theater Systems
Codec ID : A_DTS
Duration : 2h 15mn
Bit rate mode : Constant
Bit rate : 1 510 Kbps
Channel(s) : 6 channels
Channel positions : Front: L C R, Surround: L R, LFE
Sampling rate : 48.0 KHz
Resolution : 24 bits
Video delay : 11ms
Stream size : 1.43 GiB (8%)
Title : DTS 5.1 @ 1536 kbps
Language : English
Audio #3
ID : 4
Format : AC-3
Format/Info : Audio Coding 3
Codec ID : A_AC3
Duration : 2h 15mn
Bit rate mode : Constant
Bit rate : 192 Kbps
Channel(s) : 2 channels
Channel positions : L R
Sampling rate : 48.0 KHz
Stream size : 187 MiB (1%)
Title : AC3 2.0 @ 192 kbps - Commentary with Directors Anthony & Joe Russo and Screenwriters Christopher Markus & Stephen McFeely
Language : English
Text #1
ID : 5
Format : UTF-8
Codec ID : S_TEXT/UTF8
Codec ID/Info : UTF-8 Plain Text
Title : Forced
Language : Russian
Text #2
ID : 6
Format : UTF-8
Codec ID : S_TEXT/UTF8
Codec ID/Info : UTF-8 Plain Text
Language : Russian
Text #3
ID : 7
Format : UTF-8
Codec ID : S_TEXT/UTF8
Codec ID/Info : UTF-8 Plain Text
Title : Commentary
Language : Russian
Text #4
ID : 8
Format : UTF-8
Codec ID : S_TEXT/UTF8
Codec ID/Info : UTF-8 Plain Text
Title : Forced
Language : English
Text #5
ID : 9
Format : UTF-8
Codec ID : S_TEXT/UTF8
Codec ID/Info : UTF-8 Plain Text
Language : English
Text #6
ID : 10
Format : UTF-8
Codec ID : S_TEXT/UTF8
Codec ID/Info : UTF-8 Plain Text
Title : SDH
Language : English
Menu
00:00:00.000 : en:Prologue
00:03:28.667 : en:Hostages on the Lemurian Star
00:13:31.728 : en:Don't Hold Your Breath
00:17:57.868 : en:Steve Visits the Smithsonian
00:22:25.302 : en:Project Insight
00:33:20.415 : en:In Pursuit
00:41:27.276 : en:Steve Meets Alexander Pierce
00:51:37.303 : en:Fugitives from S.H.I.E.L.D.
00:58:23.959 : en:Uncovering the Past
01:07:40.348 : en:Call It a Resume
01:16:22.203 : en:Facing Off with the Winter Soldier
01:24:43.078 : en:Captain's Orders
01:32:17.699 : en:Paying a Price
01:37:06.612 : en:Engaging
01:49:13.088 : en:The End of the Line
01:55:03.730 : en:Battle over the Potomac
02:01:11.055 : en:Life after S.H.I.E.L.D.
02:06:22.241 : en:End Credits
-Скриншоты:
       

2014 - Новый Человек-паук: Высокое напряжение / The Amazing Spider-Man 2 BDRip | 1080p

-Новый Человек-паук: Высокое напряжение / The Amazing Spider-Man 2 (2014) BDRip- Производство: США
Жанр: Фэнтези, Боевик, Приключения
Перевод: Дублированный
Субтитры: Вшитые (отключаемые)
Язык субтитров: Русский (Forced, iTunes), Русский (iTunes), Русский (Commentary, Blu-ray CEE), Английский (iTunes), Английский, Английский (SDH), Английский (SDH-COLORED), Английский (Commentary)
Дата мировой премьеры: 10 апреля 2014
Дата российской премьеры: 24 апреля 2014
Дата выхода DVD релиза: 21 августа 2014
Режиссер: Марк Уэбб
Продюсер: Ави Арад, Мэттью Толмак
Актеры: Эндрю Гарфилд, Эмма Стоун, Джейми Фокс, Дэйн ДеХаан, Салли Филд, Колм Фиор, Фелисити Джонс, Пол Джаматти, Мартон Чокаш, Кэмпбелл Скотт
Описание фильма:
Питер Паркер под маской Человека-паука по-прежнему спасает мир от злодеев и преступников, а свободное время проводит со своей возлюбленной Гвен, но школьная пора близится к концу, и впереди героев ждет взрослая жизнь. Питер помнит о том, что дал отцу Гвен слово навсегда уйти из жизни девушки, тем самым больше не подвергая ее опасности. Однако сдержать это обещание не так просто. Судьба готовит Питеру сюрпризы: на его пути появится новый противник - Электро, а также ему будет суждено вновь встретиться с давним приятелем Гарри Озборном и узнать много нового о прошлом своей семьи.

Продолжительность: 02:21:35
Качество видео: BDRip
Чаптеры: Сохранены оригинальные чаптеры как на Blu-ray
Видеокодек: MPEG-4 AVC/H.264
Битрейт видео: ~15800 kbps
Размер кадра: 1920x800
Аудио 1: Русский AC3, 3/2 (L,C,R,l,r) + LFE ch, ~640.00 kbps | Дубляж, Blu-ray CEE
Аудио 2: Украинский AC3, 3/2 (L,C,R,l,r) + LFE ch, ~640.00 kbps | Дубляж, Blu-ray CEE
Аудио 3: Английский DTS, 3/2 (L,C,R,l,r) + LFE ch, ~1536.00 kbps | Оригинал
Аудио 4: Английский AC3, 2/0 (L,R) ch, ~192.00 kbps | Commentary with Writers Alex Kurtzman and Jeff Pinkner and Producers Matt Tolmach and Avi Arad
Аудио 5: Английский AC3, 3/2 (L,C,R,l,r) + LFE ch, ~448.00 kbps | Descriptive-

MediaInfo:

General
Complete name : O:\Marvel Comics.Part.2\Новый Человек-паук. Высокое напряжение.mkv
Format : Matroska
File size : 19.4 GiB
Duration : 2h 21mn
Overall bit rate : 19.6 Mbps
Movie name : The Amazing Spider-Man 2 (2014)
Encoded date : UTC 2014-08-12 17:10:20
Writing application : mkvmerge v3.4.0 ('Rapunzel') built on May 15 2010 09:38:20
Writing library : libebml v0.8.0 + libmatroska v0.9.0
Video
ID : 1
Format : AVC
Format/Info : Advanced Video Codec
Format profile : [url=mailto:[email protected]][email protected][/url]
Format settings, CABAC : Yes
Format settings, ReFrames : 5 frames
Muxing mode : Container [email protected]
Codec ID : V_MPEG4/ISO/AVC
Duration : 2h 21mn
Bit rate : 15.8 Mbps
Nominal bit rate : 16.2 Mbps
Width : 1 920 pixels
Height : 800 pixels
Display aspect ratio : 2.40:1
Frame rate : 23.976 fps
Resolution : 8 bits
Colorimetry : 4:2:0
Scan type : Progressive
Bits/(Pixel*Frame) : 0.429
Stream size : 15.6 GiB (80%)
Title : The Amazing Spider-Man 2 (2014)
Writing library : x264 core 142 r2431+42 c69a006 tMod [[email protected]:2:0 X86]
Encoding settings : cabac=1 / ref=5 / deblock=1:-3:-3 / analyse=0x3:0x113 / me=umh / subme=10 / psy=1 / fade_compensate=0.00 / psy_rd=1.05:0.00 / mixed_ref=1 / me_range=32 / chroma_me=1 / trellis=2 / 8x8dct=1 / cqm=0 / deadzone=21,11 / fast_pskip=0 / chroma_qp_offset=-2 / threads=6 / lookahead_threads=1 / sliced_threads=0 / nr=0 / decimate=0 / interlaced=0 / bluray_compat=0 / constrained_intra=0 / fgo=0 / bframes=8 / b_pyramid=2 / b_adapt=2 / b_bias=0 / direct=3 / weightb=1 / open_gop=0 / weightp=2 / keyint=250 / keyint_min=23 / scenecut=40 / intra_refresh=0 / rc_lookahead=60 / rc=2pass / mbtree=0 / bitrate=16200 / ratetol=1.0 / qcomp=0.65 / qpmin=0:0:0 / qpmax=69:69:69 / qpstep=4 / cplxblur=20.0 / qblur=0.5 / vbv_maxrate=50000 / vbv_bufsize=62500 / nal_hrd=none / filler=0 / ip_ratio=1.20 / pb_ratio=1.10 / aq=4:0.85 / aq-sensitivity=10.00 / aq-factor=1.00:1.00:1.00 / aq2=0 / aq3=0
Language : English
Audio #1
ID : 2
Format : AC-3
Format/Info : Audio Coding 3
Codec ID : A_AC3
Duration : 2h 21mn
Bit rate mode : Constant
Bit rate : 640 Kbps
Channel(s) : 6 channels
Channel positions : Front: L C R, Surround: L R, LFE
Sampling rate : 48.0 KHz
Stream size : 648 MiB (3%)
Title : AC3 5.1 @ 640 kbps - DUB, Blu-ray CEE
Language : Russian
Audio #2
ID : 3
Format : AC-3
Format/Info : Audio Coding 3
Codec ID : A_AC3
Duration : 2h 21mn
Bit rate mode : Constant
Bit rate : 640 Kbps
Channel(s) : 6 channels
Channel positions : Front: L C R, Surround: L R, LFE
Sampling rate : 48.0 KHz
Stream size : 648 MiB (3%)
Title : AC3 5.1 @ 640 kbps - DUB, Blu-ray CEE
Language : Ukrainian
Audio #3
ID : 4
Format : DTS
Format/Info : Digital Theater Systems
Codec ID : A_DTS
Duration : 2h 21mn
Bit rate mode : Constant
Bit rate : 1 510 Kbps
Channel(s) : 6 channels
Channel positions : Front: L C R, Surround: L R, LFE
Sampling rate : 48.0 KHz
Resolution : 24 bits
Video delay : 11ms
Stream size : 1.49 GiB (8%)
Title : DTS 5.1 @ 1536 kbps
Language : English
Audio #4
ID : 5
Format : AC-3
Format/Info : Audio Coding 3
Format profile : Dolby Digital
Codec ID : A_AC3
Duration : 2h 21mn
Bit rate mode : Constant
Bit rate : 192 Kbps
Channel(s) : 2 channels
Channel positions : L R
Sampling rate : 48.0 KHz
Stream size : 194 MiB (1%)
Title : AC3 2.0 @ 192 kbps - Commentary with Writers Alex Kurtzman and Jeff Pinkner and Producers Matt Tolmach and Avi Arad
Language : English
Audio #5
ID : 6
Format : AC-3
Format/Info : Audio Coding 3
Codec ID : A_AC3
Duration : 2h 21mn
Bit rate mode : Constant
Bit rate : 448 Kbps
Channel(s) : 6 channels
Channel positions : Front: L C R, Surround: L R, LFE
Sampling rate : 48.0 KHz
Stream size : 454 MiB (2%)
Title : AC3 5.1 @ 448 kbps - Descriptive
Language : English
Text #1
ID : 7
Format : UTF-8
Codec ID : S_TEXT/UTF8
Codec ID/Info : UTF-8 Plain Text
Title : Forced
Language : Russian
Text #2
ID : 8
Format : UTF-8
Codec ID : S_TEXT/UTF8
Codec ID/Info : UTF-8 Plain Text
Title : iTunes
Language : Russian
Text #3
ID : 9
Format : UTF-8
Codec ID : S_TEXT/UTF8
Codec ID/Info : UTF-8 Plain Text
Title : Commentary
Language : Russian
Text #4
ID : 10
Format : UTF-8
Codec ID : S_TEXT/UTF8
Codec ID/Info : UTF-8 Plain Text
Title : iTunes
Language : English
Text #5
ID : 11
Format : UTF-8
Codec ID : S_TEXT/UTF8
Codec ID/Info : UTF-8 Plain Text
Language : English
Text #6
ID : 12
Format : UTF-8
Codec ID : S_TEXT/UTF8
Codec ID/Info : UTF-8 Plain Text
Title : SDH
Language : English
Text #7
ID : 13
Format : UTF-8
Codec ID : S_TEXT/UTF8
Codec ID/Info : UTF-8 Plain Text
Title : SDH-COLORED
Language : English
Text #8
ID : 14
Format : UTF-8
Codec ID : S_TEXT/UTF8
Codec ID/Info : UTF-8 Plain Text
Title : Commentary
Language : English
Menu
00:00:00.000 : en:00:00:00.000
00:07:05.342 : en:00:07:05.342
00:14:28.201 : en:00:14:28.201
00:20:13.838 : en:00:20:13.838
00:29:27.099 : en:00:29:27.099
00:39:02.590 : en:00:39:02.590
00:50:56.804 : en:00:50:56.804
00:59:52.756 : en:00:59:52.756
01:08:53.129 : en:01:08:53.129
01:16:19.950 : en:01:16:19.950
01:25:27.706 : en:01:25:27.706
01:35:23.259 : en:01:35:23.259
01:41:30.334 : en:01:41:30.334
01:49:18.343 : en:01:49:18.343
01:57:00.639 : en:01:57:00.639
02:04:44.352 : en:02:04:44.352
-Скриншоты:
       

2014 - Люди Икс: Дни минувшего будущего / X-Men: Days of Future Past | 1080p

-Люди Икс: Дни минувшего будущего / X-Men: Days of Future Past (2014) BDRip- Производство: США, Великобритания, Marvel Entertainment, 20th Century Fox Film Corporation
Жанр: Фантастика, Боевик, Приключения
Перевод: Дублированный, Авторский
Субтитры: Вшитые (отключаемые)
Язык субтитров: Русский (Forced, Full), Украинский (Forced, Full), Английский (Forced, Full)
Дата мировой премьеры: 10 мая 2014
Дата российской премьеры: 22 мая 2014
Дата выхода DVD релиза: 2 октября 2014
Режиссер: Брайан Сингер
Продюсер: Саймон Кинберг, Хатч Паркер
Актеры: Хью Джекман, Джеймс МакЭвой, Майкл Фассбендер, Дженнифер Лоуренс, Холли Берри, Николас Холт, Анна Пэкуин, Эллен Пейдж, Питер Динклэйдж, Шон Эшмор
Описание фильма:
В недалёком будущем мутанты близки к истреблению роботами-охотниками на мутантов Стражами. Единственная надежда для мутантов выжить - предотвратить череду роковых событий, приведших к появлению Стражей. С помощью своих способностей, Китти Прайд перемещает сознание Росомахи в его молодое тело в 1973 год. В прошлом всё оказывается не так радужно: молодой Профессор Икс окончательно разочарован в своих идеях, Магнето содержится в тюрьме глубоко под землёй, а человечество не знает как реагировать на широкое появление мутантов...

02:15:54 02:21:35 02:11:35
Продолжительность: 02:11:35
Качество видео: BDRip
Видеокодек: MPEG-4 AVC/H.264
Битрейт видео: ~16400 kbps
Размер кадра: 1920x800
Аудио 1: Русский DTS, 3/2 (L,C,R,l,r) + LFE ch, ~768.00 kbps | Дубляж, Blu-Ray CEE
Аудио 2: Русский DTS, 3/2 (L,C,R,l,r) + LFE ch, ~1536.00 kbps | Одноголосый закадровый, Ю. Живов
Аудио 3: Русский DTS, 3/2 (L,C,R,l,r) + LFE ch, ~1536.00 kbps | Одноголосый закадровый, В. Белов
Аудио 4: Украинский AC3, 3/2 (L,C,R,l,r) + LFE ch, ~448.00 kbps | Дубляж, Blu-Ray CEE
Аудио 5: Английский DTS, 3/2 (L,C,R,l,r) + LFE ch, ~1536.00 kbps | Оригинал
Аудио 6: Английский AC3, 3/2 (L,C,R,l,r) + LFE ch, ~448.00 kbps | Descriptive-

MediaInfo:

General
Complete name : O:\Marvel Comics.Part.2\Люди Икс. Дни минувшего будущего.mkv
Format : Matroska
File size : 21.1 GiB
Duration : 2h 11mn
Overall bit rate : 23.0 Mbps
Encoded date : UTC 2014-11-16 16:05:06
Writing application : mkvmerge v6.9.1 ('Blue Panther') 64bit built on Apr 18 2014 18:23:38
Writing library : libebml v1.3.0 + libmatroska v1.4.1
Video
ID : 1
Format : AVC
Format/Info : Advanced Video Codec
Format profile : [url=mailto:[email protected]][email protected][/url]
Format settings, CABAC : Yes
Format settings, ReFrames : 5 frames
Muxing mode : Container [email protected]
Codec ID : V_MPEG4/ISO/AVC
Duration : 2h 11mn
Bit rate : 16.4 Mbps
Nominal bit rate : 16.8 Mbps
Width : 1 920 pixels
Height : 800 pixels
Display aspect ratio : 2.40:1
Frame rate : 23.976 fps
Resolution : 8 bits
Colorimetry : 4:2:0
Scan type : Progressive
Bits/(Pixel*Frame) : 0.444
Stream size : 15.0 GiB (71%)
Writing library : x264 core 142 r2479 dd79a61
Encoding settings : cabac=1 / ref=5 / deblock=1:-3:-3 / analyse=0x3:0x133 / me=umh / subme=10 / psy=1 / psy_rd=1.05:0.00 / mixed_ref=1 / me_range=24 / chroma_me=1 / trellis=2 / 8x8dct=1 / cqm=0 / deadzone=21,11 / fast_pskip=1 / chroma_qp_offset=-2 / threads=6 / lookahead_threads=1 / sliced_threads=0 / nr=0 / decimate=1 / interlaced=0 / bluray_compat=0 / constrained_intra=0 / bframes=7 / b_pyramid=2 / b_adapt=2 / b_bias=0 / direct=3 / weightb=1 / open_gop=0 / weightp=2 / keyint=250 / keyint_min=23 / scenecut=40 / intra_refresh=0 / rc=2pass / mbtree=0 / bitrate=16800 / ratetol=1.0 / qcomp=0.70 / qpmin=0 / qpmax=69 / qpstep=4 / cplxblur=20.0 / qblur=0.5 / ip_ratio=1.30 / pb_ratio=1.20 / aq=1:0.80 / zones=26,139,b=2.0/1454,3903,b=1.3/3904,4473,b=2.2/4474,9628,b=1.3/9629,9664,b=2.5/9665,10802,b=1.3/10803,13865,b=4/13866,16459,b=1.2/16460,16781,b=2.0/16782,17487,b=1.2/17488,17635,b=2.2/17636,18254,b=1.2/18255,18475,b=1.6/18476,26482,b=1.2/26483,26540,b=1.8/26541,28803,b=1.5/41813,49624,b=1.3/49625,49819,b=1.6/49820,51811,b=1.2/56255,59258,b=1.2/64840,70341,b=1.2/74761,74834,b=1.3/78625,78794,b=1.3/90997,91266,b=1.5/94395,94598,b=1.6/95861,96157,b=1.3/101174,101934,b=1.3/105459,108655,b=1.3/112050,113057,b=1.3/113058,113995,b=2.0/113996,122145,b=1.3/122146,123901,b=2.0/123902,124013,b=1.3/124014,124265,b=1.8/124266,125832,b=1.3/125833,125899,b=1.8/125900,126398,b=1.3/126399,126471,b=1.8/126472,126574,b=1.3/126575,126800,b=1.8/126801,127071,b=1.3/127072,127157,b=1.8/127158,127272,b=1.3/127273,127389,b=1.8/127390,127437,b=1.3/127438,127485,b=1.8/127486,127602,b=1.3/127603,127656,b=1.8/131309,131594,b=1.3/134383,142197,b=1.3/143158,143732,b=1.3/143989,144474,b=1.3/145406,146608,b=1.3/148146,150723,b=1.3/150724,150880,b=1.3/153154,153333,b=1.3/153992,154269,b=1.3/154270,154400,b=1.3/157078,157458,b=1.3/157861,158097,b=1.3/158169,158526,b=1.3/158850,159065,b=1.3/159193,159413,b=1.3/159414,160393,b=1.3/163993,164235,b=1.3/164310,164607,b=1.3/164692,164748,b=2.2/165178,165565,b=1.5/168413,168896,b=1.4/174635,175052,b=1.4/176343,187777,b=0.5/187778,187910,b=2.2/188946,189298,b=0.5
Matrix coefficients : BT.709-5, BT.1361, IEC 61966-2-4 709, SMPTE RP177
Audio #1
ID : 2
Format : DTS
Format/Info : Digital Theater Systems
Codec ID : A_DTS
Duration : 2h 11mn
Bit rate mode : Constant
Bit rate : 755 Kbps
Channel(s) : 6 channels
Channel positions : Front: L C R, Surround: L R, LFE
Sampling rate : 48.0 KHz
Resolution : 24 bits
Stream size : 710 MiB (3%)
Title : Dub
Language : Russian
Audio #2
ID : 3
Format : DTS
Format/Info : Digital Theater Systems
Format profile : ES
Codec ID : A_DTS
Duration : 2h 11mn
Bit rate mode : Constant
Bit rate : 1 510 Kbps
Channel(s) : 6 channels
Channel positions : Front: L C R, Surround: L R, LFE
Sampling rate : 48.0 KHz
Resolution : 24 bits
Stream size : 1.39 GiB (7%)
Title : AVO, Jivov
Language : Russian
Audio #3
ID : 4
Format : DTS
Format/Info : Digital Theater Systems
Codec ID : A_DTS
Duration : 2h 11mn
Bit rate mode : Constant
Bit rate : 1 510 Kbps
Channel(s) : 6 channels
Channel positions : Front: L C R, Surround: L R, LFE
Sampling rate : 48.0 KHz
Resolution : 24 bits
Stream size : 1.39 GiB (7%)
Title : AVO, Belov
Language : Russian
Audio #4
ID : 5
Format : AC-3
Format/Info : Audio Coding 3
Codec ID : A_AC3
Duration : 2h 11mn
Bit rate mode : Constant
Bit rate : 448 Kbps
Channel(s) : 6 channels
Channel positions : Front: L C R, Surround: L R, LFE
Sampling rate : 48.0 KHz
Stream size : 422 MiB (2%)
Title : Dub
Language : Ukrainian
Audio #5
ID : 6
Format : DTS
Format/Info : Digital Theater Systems
Format profile : ES
Codec ID : A_DTS
Duration : 2h 11mn
Bit rate mode : Constant
Bit rate : 1 510 Kbps
Channel(s) : 6 channels
Channel positions : Front: L C R, Surround: L R, LFE
Sampling rate : 48.0 KHz
Resolution : 24 bits
Stream size : 1.39 GiB (7%)
Audio #6
ID : 7
Format : AC-3
Format/Info : Audio Coding 3
Codec ID : A_AC3
Duration : 2h 11mn
Bit rate mode : Constant
Bit rate : 448 Kbps
Channel(s) : 6 channels
Channel positions : Front: L C R, Surround: L R, LFE
Sampling rate : 48.0 KHz
Stream size : 422 MiB (2%)
Title : Descriptive
Text #1
ID : 8
Format : UTF-8
Codec ID : S_TEXT/UTF8
Codec ID/Info : UTF-8 Plain Text
Title : Forced
Language : Russian
Text #2
ID : 9
Format : UTF-8
Codec ID : S_TEXT/UTF8
Codec ID/Info : UTF-8 Plain Text
Language : Russian
Text #3
ID : 10
Format : UTF-8
Codec ID : S_TEXT/UTF8
Codec ID/Info : UTF-8 Plain Text
Title : Forced
Language : Ukrainian
Text #4
ID : 11
Format : UTF-8
Codec ID : S_TEXT/UTF8
Codec ID/Info : UTF-8 Plain Text
Language : Ukrainian
Text #5
ID : 12
Format : UTF-8
Codec ID : S_TEXT/UTF8
Codec ID/Info : UTF-8 Plain Text
Title : Forced
Text #6
ID : 13
Format : UTF-8
Codec ID : S_TEXT/UTF8
Codec ID/Info : UTF-8 Plain Text
Menu
00:00:00.000 : en:00:00:00.000
00:03:33.338 : en:00:03:33.338
00:08:00.689 : en:00:08:00.689
00:10:28.628 : en:00:10:28.628
00:13:58.046 : en:00:13:58.046
00:17:02.021 : en:00:17:02.021
00:20:16.090 : en:00:20:16.090
00:22:11.330 : en:00:22:11.330
00:26:37.888 : en:00:26:37.888
00:30:32.039 : en:00:30:32.039
00:34:29.776 : en:00:34:29.776
00:36:00.992 : en:00:36:00.992
00:38:18.087 : en:00:38:18.087
00:40:37.101 : en:00:40:37.101
00:45:53.793 : en:00:45:53.793
00:48:53.848 : en:00:48:53.848
00:51:58.157 : en:00:51:58.157
00:54:43.113 : en:00:54:43.113
00:57:51.426 : en:00:57:51.426
01:00:48.186 : en:01:00:48.186
01:03:26.594 : en:01:03:26.594
01:07:09.567 : en:01:07:09.567
01:09:43.596 : en:01:09:43.596
01:13:11.470 : en:01:13:11.470
01:15:31.861 : en:01:15:31.861
01:17:27.726 : en:01:17:27.726
01:19:30.099 : en:01:19:30.099
01:24:50.711 : en:01:24:50.711
01:26:58.255 : en:01:26:58.255
01:31:04.250 : en:01:31:04.250
01:34:03.680 : en:01:34:03.680
01:37:33.181 : en:01:37:33.181
01:41:54.817 : en:01:41:54.817
01:44:52.995 : en:01:44:52.995
01:47:19.808 : en:01:47:19.808
01:51:29.766 : en:01:51:29.766
01:56:42.746 : en:01:56:42.746
02:00:12.414 : en:02:00:12.414
02:02:34.973 : en:02:02:34.973
02:10:31.907 : en:02:10:31.907
-Скриншоты:
       

2014 - Стражи Галактики / Guardians of the Galaxy | 1080p

-Стражи Галактики / Guardians of the Galaxy (2014) BDRip- Производство: США, Великобритания
Жанр: Фантастика, Боевик, Приключения
Перевод: Дублированный, многоголосый закадровый, авторский (одноголосый)
Субтитры: Вшитые (отключаемые)
Язык субтитров: Русские (iTunes), Английские, Английские (SDH), Английские (SDH-COLORED), Английские (Commentary)
Дата мировой премьеры: 21 июля 2014
Дата российской премьеры: 31 июля 2014
Дата выхода DVD релиза: 2 декабря 2014
Режиссер: Джеймс Ганн
Продюсер: Кевин Файги
Актеры: Крис Прэтт, Зои Салдана, Дэйв Батиста, Брэдли Купер, Вин Дизель, Ли Пейс, Майкл Рукер, Карен Гиллан, Гленн Клоуз, Джимон Хонсу
Описание фильма:
Отважному путешественнику Питеру Квиллу попадает в руки таинственный артефакт, принадлежащий могущественному и безжалостному злодею Ронану, строящему коварные планы по захвату Вселенной. Питер оказывается в центре межгалактической охоты, где жертва — он сам.
Единственный способ спасти свою жизнь — объединиться с четверкой нелюдимых изгоев: воинственным енотом по кличке Ракета, человекоподобным деревом Грутом, смертельно опасной Гаморой и одержимым жаждой мести Драксом, также известным как Разрушитель. Когда Квилл понимает, какой силой обладает украденный артефакт и какую опасность он представляет для вселенной, одиночка пойдет на все, чтобы сплотить случайных союзников для решающей битвы за судьбу галактики.

Продолжительность: 02:00:51
Качество видео: BDRip
Видеокодек: MPEG-4 AVC/H.264
Битрейт видео: ~16.2 Mbps
Размер кадра: 1920x800
Аудио 1: Русский AC3, 3/2 (L,C,R,l,r) + LFE ch, ~640.00 kbps | Дубляж, Blu-ray EUR
Аудио 2: Русский DTS, 3/2 (L,C,R,l,r) + LFE ch, ~1536.00 kbps | Многоголосый закадровый (Омикрон)
Аудио 3: Украинский DTS, 3/2 (L,C,R,l,r) + LFE ch, ~1536.00 kbps | Дубляж, Disney / Buena Vista
Аудио 4: Русский DTS, 3/2 (L,C,R,l,r) + LFE ch, ~1536.00 kbps | Одноголосый закадровый, Ю.Сербин
Аудио 5: Английский DTS, 3/2 (L,C,R,l,r) + LFE ch, ~1536.00 kbps | Оригинал
Аудио 6: Английский AC3, 2/0 (L,R) ch, ~192.00 kbps | Commentary with Director James Gunn-

MediaInfo:

General
Complete name : O:\Marvel Comics.Part.2\Стражи Галактики.mkv
Format : Matroska
File size : 19.9 GiB
Duration : 2h 1mn
Overall bit rate : 23.5 Mbps
Movie name : Guardians of the Galaxy (2014)
Encoded date : UTC 2014-12-07 13:50:27
Writing application : mkvmerge v3.4.0 ('Rapunzel') built on May 15 2010 09:38:20
Writing library : libebml v0.8.0 + libmatroska v0.9.0
Video
ID : 1
Format : AVC
Format/Info : Advanced Video Codec
Format profile : [url=mailto:[email protected]][email protected][/url]
Format settings, CABAC : Yes
Format settings, ReFrames : 5 frames
Muxing mode : Container [email protected]
Codec ID : V_MPEG4/ISO/AVC
Duration : 2h 1mn
Bit rate : 16.2 Mbps
Width : 1 920 pixels
Height : 800 pixels
Display aspect ratio : 2.40:1
Frame rate : 23.976 fps
Resolution : 8 bits
Colorimetry : 4:2:0
Scan type : Progressive
Bits/(Pixel*Frame) : 0.439
Stream size : 13.7 GiB (69%)
Title : Guardians of the Galaxy (2014)
Writing library : x264 core 142 r2431+42 c69a006 tMod [[email protected] X86_64]
Encoding settings : cabac=1 / ref=5 / deblock=1:-3:-3 / analyse=0x3:0x133 / me=tesa / subme=10 / psy=1 / fade_compensate=0.00 / psy_rd=0.90:0.00 / mixed_ref=1 / me_range=24 / chroma_me=1 / trellis=2 / 8x8dct=1 / cqm=0 / deadzone=21,11 / fast_pskip=0 / chroma_qp_offset=-2 / threads=12 / lookahead_threads=1 / sliced_threads=0 / nr=0 / decimate=0 / interlaced=0 / bluray_compat=0 / constrained_intra=0 / fgo=0 / bframes=6 / b_pyramid=2 / b_adapt=2 / b_bias=0 / direct=3 / weightb=1 / open_gop=0 / weightp=2 / keyint=250 / keyint_min=24 / scenecut=40 / intra_refresh=0 / rc_lookahead=250 / rc=crf / mbtree=0 / crf=15.5000 / qcomp=0.65 / qpmin=0:0:0 / qpmax=69:69:69 / qpstep=4 / vbv_maxrate=62500 / vbv_bufsize=78125 / crf_max=0.0 / nal_hrd=none / filler=0 / ip_ratio=1.40 / pb_ratio=1.15 / aq=4:0.80 / aq-sensitivity=10.00 / aq-factor=1.00:1.00:1.00 / aq2=0 / aq3=0 / zones=4577,5301,crf=10.5/13232,13275,crf=13.5/13276,15820,crf=13.5/22098,22407,crf=13.5/26137,29515,crf=13.5/50867,62157,crf=13.5/63233,63510,crf=13.5/63974,64158,crf=13.5/70235,72924,crf=13.5/82500,85532,crf=13.5/87306,97929,crf=13.5/117002,117181,crf=13.5/119487,143694,crf=12.5/147279,150955,crf=12.5/162611,162954,crf=13.5
Language : English
Audio #1
ID : 2
Format : AC-3
Format/Info : Audio Coding 3
Codec ID : A_AC3
Duration : 2h 1mn
Bit rate mode : Constant
Bit rate : 640 Kbps
Channel(s) : 6 channels
Channel positions : Front: L C R, Surround: L R, LFE
Sampling rate : 48.0 KHz
Stream size : 555 MiB (3%)
Title : AC3 5.1 @ 640 kbps - DUB, Blu-ray EUR
Language : Russian
Audio #2
ID : 3
Format : DTS
Format/Info : Digital Theater Systems
Codec ID : A_DTS
Duration : 2h 1mn
Bit rate mode : Constant
Bit rate : 1 510 Kbps
Channel(s) : 6 channels
Channel positions : Front: L C R, Surround: L R, LFE
Sampling rate : 48.0 KHz
Resolution : 24 bits
Stream size : 1.28 GiB (6%)
Title : DTS 5.1 @ 1536 kbps - MVO, OMiCRON
Language : Russian
Audio #3
ID : 4
Format : DTS
Format/Info : Digital Theater Systems
Codec ID : A_DTS
Duration : 2h 1mn
Bit rate mode : Constant
Bit rate : 1 510 Kbps
Channel(s) : 6 channels
Channel positions : Front: L C R, Surround: L R, LFE
Sampling rate : 48.0 KHz
Resolution : 24 bits
Stream size : 1.28 GiB (6%)
Title : DTS 5.1 @ 1536 kbps - DUB, Disney / Buena Vista
Language : Ukrainian
Audio #4
ID : 5
Format : DTS
Format/Info : Digital Theater Systems
Codec ID : A_DTS
Duration : 2h 1mn
Bit rate mode : Constant
Bit rate : 1 510 Kbps
Channel(s) : 6 channels
Channel positions : Front: L C R, Surround: L R, LFE
Sampling rate : 48.0 KHz
Resolution : 24 bits
Stream size : 1.28 GiB (6%)
Title : DTS 5.1 @ 1536 kbps - AVO, Y.Serbin
Language : Russian
Audio #5
ID : 6
Format : DTS
Format/Info : Digital Theater Systems
Codec ID : A_DTS
Duration : 2h 1mn
Bit rate mode : Constant
Bit rate : 1 510 Kbps
Channel(s) : 6 channels
Channel positions : Front: L C R, Surround: L R, LFE
Sampling rate : 48.0 KHz
Resolution : 24 bits
Video delay : 11ms
Stream size : 1.28 GiB (6%)
Title : DTS 5.1 @ 1536 kbps
Language : English
Audio #6
ID : 7
Format : AC-3
Format/Info : Audio Coding 3
Codec ID : A_AC3
Duration : 2h 1mn
Bit rate mode : Constant
Bit rate : 192 Kbps
Channel(s) : 2 channels
Channel positions : L R
Sampling rate : 48.0 KHz
Stream size : 166 MiB (1%)
Title : AC3 2.0 @ 192 kbps - Commentary with Director James Gunn
Language : English
Text #1
ID : 8
Format : UTF-8
Codec ID : S_TEXT/UTF8
Codec ID/Info : UTF-8 Plain Text
Title : iTunes
Language : Russian
Text #2
ID : 9
Format : UTF-8
Codec ID : S_TEXT/UTF8
Codec ID/Info : UTF-8 Plain Text
Language : English
Text #3
ID : 10
Format : UTF-8
Codec ID : S_TEXT/UTF8
Codec ID/Info : UTF-8 Plain Text
Title : SDH
Language : English
Text #4
ID : 11
Format : UTF-8
Codec ID : S_TEXT/UTF8
Codec ID/Info : UTF-8 Plain Text
Title : SDH-COLORED
Language : English
Text #5
ID : 12
Format : UTF-8
Codec ID : S_TEXT/UTF8
Codec ID/Info : UTF-8 Plain Text
Title : Commentary
Language : English
Menu
00:00:00.000 : en:Prologue
00:04:05.703 : en:Morag
00:11:21.806 : en:Ronan The Accuser
00:15:21.712 : en:A Man Of Honor
00:20:54.419 : en:The Kyln
00:27:11.212 : en:Crimes Against The Galaxy
00:33:58.828 : en:Escaping The Kyln
00:44:28.290 : en:Knowhere
00:50:53.008 : en:I Do Not Dance
00:55:17.564 : en:The Collector
00:59:45.206 : en:Facing Off With Ronan
01:06:06.921 : en:Something Incredibly Heroic
01:14:46.023 : en:12 Percent Of A Plan
01:22:20.644 : en:The Fleet Approaches
01:26:29.726 : en:Inside The Dark Aster
01:30:23.876 : en:Destroying Xandar
01:35:58.377 : en:Protecting The Guardians
01:40:46.749 : en:Guardians Of The Galaxy
01:47:35.365 : en:Guardians Pardoned
01:53:16.623 : en:End Credits
02:00:10.828 : en:End Tag
-Скриншоты:
       

-

Примечание:

Данный релиз - Вселенная Марвел Комикс / Marvel Comics Universe (1985-2013) BDRip [1080p] [Фильмография] задуман как продолжение первого, который в последующем будет обновляться.
Приятного просмотра!
-
Вне форума [Профиль] [ЛС]
Похожие темы
Форум Тема Автор Торрент Отв. Посл. сообщение
./templates/default/images/folder_dl.gif Психология, Тренинг, Саморазвитие Короленко Ц.П., Фролова Г.В. - Вселенная внутри тебя (Эмоции. Поведение. Адаптация) [1979, DjVu, RUS] Omen
0 | 1

0 | 259

0

2015-12-03 03:31
Omen Последнее
./templates/default/images/folder_dl.gif Обучающая и развивающая литература, учебники Эрвин Шредингер | Квантовый кот вселенной (2017) [PDF] }{@R0N
1 | 0

0 | 13121

6

2017-08-27 20:44
}{@R0N Последнее
./templates/default/images/folder_dl.gif Фантастика, фэнтези, ужасы, мистика Роман Шатский | Цикл «Вселенная в Огне» [4 книги] (2017-2018) [FB2] }{@R0N
1 | 0

0 | 517

7

2018-06-19 18:19
}{@R0N Последнее
Показать сообщения:    
Ответить на тему

Текущее время: Сегодня 15:22

Часовой пояс: GMT + 3



Вы не можете начинать темы
Вы не можете отвечать на сообщения
Вы не можете редактировать свои сообщения
Вы не можете удалять свои сообщения
Вы не можете голосовать в опросах
Вы не можете прикреплять файлы к сообщениям
Вы не можете скачивать файлы