Today is a free download without charge Download

Гробовщик / The Mortician (Гарет Максвелл Робертс / Gareth Maxwell Roberts) [2011 г., Великобритания, триллер, BDRip1080p]

Reply to topic
 
Author
Message

sassad ®

Gender:

Longevity: 10 years

Posts: 1214

Location: Галич

Торрент-статистика

Post 20-Feb-2012 00:56

[Quote]

Гробовщик / The Mortician--
Русское название: Гробовщик
Оригинальное название: The Mortician
Год выпуска: 2011
Страна: Великобритания
Жанр: триллер
Продолжительность: 89 мин. / 01:29
Режиссер: Гарет Максвелл Робертс / Gareth Maxwell Roberts
Продюссер: Рене Бастиан, Гарет Максвелл Робертс, Риз Дэвид Томас
Сценарий: Гарет Максвелл Робертс
Премьера в мире: 14 февраля 2012
R - Лицам до 17 лет обязательно присутствие взрослого
5.10 (208)

В ролях: Метод Мэн, Дэш Майок, Э.Дж. Бонилла, Джуди Марте, Анджелик Замбрана, Уенделл Пирс, Дэна Фучс, Эдвард Ферлонг, Круз Сантьяго, Вернон Брукс-Описание: Одинокий и необщительный Гробовщик работает паталогоанатомом в городском морге. Он изо дня в день, сталкиваясь с трупами, с безразличием относится к своей работе. Жизнь его течет монотонно и спокойно. Но с появлением бывшего преступника Ноа, досрочно освобожденного из мест заключения, который пришел работать в морг, жизнь Гробовщика меняется. А когда он знакомится с маленьким мальчиком Кейном, в его жизни открывается новая страничка. Дело в том, что мать этого мальчугана при невыясненных и странных обстоятельствах была зверски убита. Гробовщик и Кейн поневоле оказываются втянуты в это дело. Начинается опасная борьба с мистическими и пугающими подробностями, не только за свою жизнь, но и жизнь Кейна. Эта борьба с насилием и произволом может грозить Гробовщику и Кейну тюремным заключением не на один год.-Качество: BDRip1080p
Формат: MKV
Видео кодек: H.26x
Аудио кодек: AC3
Видео: MPEG-4 AVC, 11.3 Мбит/с, 1920x816, 23.976 кадр/с
Аудио: Русский (AC3, 6 ch, 640 Кбит/c, 48,0 КГц), английский (AC3, 6 ch, 448 Кбит/c, 48,0 КГц)
-

M.I

Код:
Полное имя                       : E:\Grobovshik.2011.x264.BDRip.1080p.mkv
Формат                           : Matroska
Версия формата                   : Version 1
Размер файла                     : 7,69 Гбайт
Продолжительность                : 1 ч. 29 м.
Общий поток                      : 12,4 Мбит/сек
Название фильма                  : Гробовщик / The Mortician (2011) BDRip 1080p - firebit.org
Дата кодирования                 : UTC 2012-02-19 18:24:36
Программа кодирования            : mkvmerge v2.3.0 ('Freak U') built on Sep  8 2008 18:32:16
Библиотека кодирования           : libebml v0.7.7 + libmatroska v0.8.1
Видео
Идентификатор                    : 1
Формат                           : AVC
Формат/Информация                : Advanced Video Codec
Профиль формата                  : [email protected]
Параметр CABAC формата           : Да
Параметр ReFrames формата        : 4 кадра
Идентификатор кодека             : V_MPEG4/ISO/AVC
Продолжительность                : 1 ч. 29 м.
Битрейт                          : 11,3 Мбит/сек
Ширина                           : 1920 пикселей
Высота                           : 816 пикселей
Соотношение сторон               : 2,35:1
Частота кадров                   : 23,976 кадра/сек
Цветовое пространство            : YUV
Субдискретизация насыщенности    : 4:2:0
Битовая глубина                  : 8 бит
Тип развёртки                    : Прогрессивная
Бит/(Пиксели*Кадры)              : 0.300
Размер потока                    : 6,86 Гбайт (89%)
Заголовок                        : http://firebit.org
Библиотека кодирования           : x264 core 119 r2106 07efeb4
Настройки программы              : cabac=1 / ref=4 / deblock=1:-2:-2 / analyse=0x3:0x113 / me=umh / subme=10 / psy=1 / psy_rd=1.20:0.20 / mixed_ref=1 / me_range=32 / chroma_me=1 / trellis=2 / 8x8dct=1 / cqm=0 / deadzone=21,11 / fast_pskip=0 / chroma_qp_offset=-3 / threads=6 / sliced_threads=0 / nr=0 / decimate=0 / interlaced=0 / bluray_compat=0 / constrained_intra=0 / bframes=5 / b_pyramid=2 / b_adapt=2 / b_bias=0 / direct=3 / weightb=1 / open_gop=0 / weightp=2 / keyint=250 / keyint_min=2 / scenecut=40 / intra_refresh=0 / rc_lookahead=72 / rc=2pass / mbtree=1 / bitrate=11264 / ratetol=1.0 / qcomp=0.60 / qpmin=10 / qpmax=51 / qpstep=4 / cplxblur=20.0 / qblur=0.5 / vbv_maxrate=38000 / vbv_bufsize=38000 / nal_hrd=none / ip_ratio=1.40 / aq=1:1.00
Язык                             : English
Аудио #1
Идентификатор                    : 2
Формат                           : AC-3
Формат/Информация                : Audio Coding 3
Расширение режима                : CM (complete main)
Идентификатор кодека             : A_AC3
Продолжительность                : 1 ч. 29 м.
Вид битрейта                     : Постоянный
Битрейт                          : 640 Кбит/сек
Каналы                           : 6 каналов
Расположение каналов             : Front: L C R, Side: L R, LFE
Частота                          : 48,0 КГц
Битовая глубина                  : 16 бит
Метод сжатия                     : С потерями
Размер потока                    : 408 Мбайт (5%)
Заголовок                        : http://firebit.org
Язык                             : Russian
Аудио #2
Идентификатор                    : 3
Формат                           : AC-3
Формат/Информация                : Audio Coding 3
Расширение режима                : CM (complete main)
Идентификатор кодека             : A_AC3
Продолжительность                : 1 ч. 29 м.
Вид битрейта                     : Постоянный
Битрейт                          : 448 Кбит/сек
Каналы                           : 6 каналов
Расположение каналов             : Front: L C R, Side: L R, LFE
Частота                          : 48,0 КГц
Битовая глубина                  : 16 бит
Метод сжатия                     : С потерями
Размер потока                    : 286 Мбайт (4%)
Заголовок                        : http://firebit.org
Язык                             : English
Текст #1
Идентификатор                    : 4
Формат                           : UTF-8
Идентификатор кодека             : S_TEXT/UTF8
Идентификатор кодека/Информация  : UTF-8 Plain Text
Заголовок                        : http://firebit.org
Язык                             : English
-

скриншоты

         

_________________


Last edited by sassad on 2012-02-20 18:23; edited 3 times in total
Other forum [Profile] [PM]
Display posts from previous:    
Reply to topic

The time now is: Today 09:37

All times are GMT + 3 Hours



You cannot post new topics in this forum
You cannot reply to topics in this forum
You cannot edit your posts in this forum
You cannot delete your posts in this forum
You cannot vote in polls in this forum
You cannot attach files in this forum
You cannot download files in this forum