Today is a free download without charge Download

Сборник мультфильмов "Зимушка зима или Когда зажигаются ёлки" (1948-1982.,Рисованная анимация, Детский, Сказка) DVDRip

Reply to topic
 
Author
Message

sashau ®

Gender:

Longevity: 8 years 10 months

Posts: 3497

Торрент-статистика

Post 07-Jan-2015 12:44

[Quote]

Зимушка зима или Когда зажигаются ёлки - Жанр: Рисованная анимация, Детский, Сказка
Описание: Сборник мультфильмов о зиме и новогодних приключениях
Продолжительность: 01:44:30 + 01:52:00
Качество видео: DVDRip
Релиз от:
Видеокодек: Xvid
Битрейт видео: ~1950 kb/s
Размер кадра: 720х544
Аудиокодек: MP3; 2 ch
Битрейт аудио: 192 kb/s

Содержание:

01. Новогодняя ночь ________ (1948) 10 мин. 09 сек.
02. Когда зажигаются ёлки ___ (1950) 20 мин. 01 сек.
03. Снеговик-Почтовик ______ (1955) 18 мин. 31 сек.
04. Сказка о Снегурочке _____ (1957) 09 мин. 31 сек.
05. Новогоднее путешествие _ (1959) 10 мин. 10 сек.
06. Случилось это зимой _____ (1968) 09 мин. 27 сек.
07. Снегурка _______________ (1969) 09 мин. 43 сек.
08. Новогодняя сказка _______ (1972) 16 мин. 37 сек.
01. Дед Мороз и лето ________ (1963) 18 мин. 40 сек.
02. Снежные дорожки _______ (1963) 10 мин. 00 сек.
03. Топтыжка ______________ (1964) 09 мин. 01 сек.
04. Тимошкина ёлка _________ (1966) 09 мин. 49 сек.
05. Варежка _______________ (1967) 09 мин. 49 сек.
06. Умка __________________ (1969) 09 мин. 41 сек.
07. Умка ищет Друга ________ (1970) 09 мин. 28 сек.
08. Дед Мороз и серый волк __ (1978) 16 мин. 58 сек.
09. Приходи на каток _______ (1981) 08 мин. 56 сек.
10. Верное средство ________ (1982) 09 мин. 21 сек.

Примечание:

Источником рипа послужили два DVD диска "Зимушка зима" и "Когда зажигаются ёлки". Так как на этих дисках больше половины мультфильмов повторялись, был сделан сборник, а не две отдельные раздачи. Некоторые мультфильмы реставрированные. Возможно сами DVD отличаются от тех, которые выложены в интернете.

Медиаинфо:

Код:
Общее
Полное имя                               : D:\Хранилище\Видео\Зимушка зима\Zimoy.zazhigayutsya.yolki\Zimoy.zazhigayutsya.yolki.1.DVDRip.avi
Формат                                   : AVI
Формат/Информация                        : Audio Video Interleave
Размер файла                             : 1,57 Гбайт
Продолжительность                        : 1 ч. 44 м.
Общий поток                              : 2152 Кбит/сек
Видео
Идентификатор                            : 0
Формат                                   : MPEG-4 Visual
Профиль формата                          : Advanced [email protected]
Параметр BVOP формата                    : Нет
Параметр QPel формата                    : Нет
Параметр GMC формата                     : Без точки перехода
Параметр матрицы формата                 : Default (MPEG)
Идентификатор кодека                     : XVID
Идентификатор кодека/Подсказка           : XviD
Продолжительность                        : 1 ч. 44 м.
Битрейт                                  : 1950 Кбит/сек
Ширина                                   : 720 пикселей
Высота                                   : 544 пикселя
Соотношение сторон                       : 4:3
Частота кадров                           : 25,000 кадров/сек
Цветовое пространство                    : YUV
Субдискретизация насыщенности            : 4:2:0
Битовая глубина                          : 8 бит
Тип развёртки                            : Прогрессивная
Метод сжатия                             : С потерями
Бит/(Пиксели*Кадры)                      : 0.199
Размер потока                            : 1,42 Гбайт (91%)
Библиотека кодирования                   : XviD 62
Аудио
Идентификатор                            : 1
Формат                                   : MPEG Audio
Версия формата                           : Version 1
Профиль формата                          : Layer 3
Идентификатор кодека                     : 55
Идентификатор кодека/Подсказка           : MP3
Продолжительность                        : 1 ч. 44 м.
Вид битрейта                             : Постоянный
Битрейт                                  : 192 Кбит/сек
Каналы                                   : 2 канала
Частота                                  : 48,0 КГц
Метод сжатия                             : С потерями
Размер потока                            : 144 Мбайт (9%)
Выравнивание                             : Разделение по промежуткам
Продолжительность промежутка             : 42  мс. (1,05 видеокадр)
Библиотека кодирования                   : LAMELAME_MAJOR_VERSI
Общее
Полное имя                               : D:\Хранилище\Видео\Зимушка зима\Zimoy.zazhigayutsya.yolki\Zimoy.zazhigayutsya.yolki.2.DVDRip.avi
Формат                                   : AVI
Формат/Информация                        : Audio Video Interleave
Размер файла                             : 1,68 Гбайт
Продолжительность                        : 1 ч. 52 м.
Общий поток                              : 2151 Кбит/сек
Видео
Идентификатор                            : 0
Формат                                   : MPEG-4 Visual
Профиль формата                          : Advanced [email protected]
Параметр BVOP формата                    : Нет
Параметр QPel формата                    : Нет
Параметр GMC формата                     : Без точки перехода
Параметр матрицы формата                 : Default (MPEG)
Идентификатор кодека                     : XVID
Идентификатор кодека/Подсказка           : XviD
Продолжительность                        : 1 ч. 52 м.
Битрейт                                  : 1950 Кбит/сек
Ширина                                   : 720 пикселей
Высота                                   : 544 пикселя
Соотношение сторон                       : 4:3
Частота кадров                           : 25,000 кадров/сек
Цветовое пространство                    : YUV
Субдискретизация насыщенности            : 4:2:0
Битовая глубина                          : 8 бит
Тип развёртки                            : Прогрессивная
Метод сжатия                             : С потерями
Бит/(Пиксели*Кадры)                      : 0.199
Размер потока                            : 1,53 Гбайт (91%)
Библиотека кодирования                   : XviD 62
Аудио
Идентификатор                            : 1
Формат                                   : MPEG Audio
Версия формата                           : Version 1
Профиль формата                          : Layer 3
Идентификатор кодека                     : 55
Идентификатор кодека/Подсказка           : MP3
Продолжительность                        : 1 ч. 52 м.
Вид битрейта                             : Постоянный
Битрейт                                  : 192 Кбит/сек
Каналы                                   : 2 канала
Частота                                  : 48,0 КГц
Метод сжатия                             : С потерями
Размер потока                            : 154 Мбайт (9%)
Выравнивание                             : Разделение по промежуткам
Продолжительность промежутка             : 43  мс. (1,07 видеокадр)
Библиотека кодирования                   : LAMELAME_MAJOR_VERSI
Скриншоты:        

Дополнительные скриншоты:

       

Other forum [Profile] [PM]
Similar theme
Forum Topic Author Torrent Replies Last Post
./templates/default/images/folder_dl.gif Программы [AudioBook] Аудиокнига "Специалист по выживанию. Сборник рассказов" (Фантастика, Дим Димыч, 2010 г.) Omen
1 | 0

0 | 838

1

2012-12-17 19:30
Omen Latest
./templates/default/images/folder_dl.gif Шрифты Шрифты - Сборник шрифтов от Parachute / Parachute Fonts Family Ultimate Bundle [OTF,TTF] Omen
1 | 0

2 | 5372

43

2015-07-23 10:10
Omen Latest
./templates/default/images/folder_dl.gif Историческая литература С. В. Смоляков | Японские сказания о войнах и мятежах (Сборник) (2012) [DJVU] NarDok
1 | 0

0 | 1344

2

2015-05-22 14:10
NarDok Latest
./templates/default/images/folder_dl.gif Эротические игры (Сборник 31в1) Эротические флеш-игры [P] [ENG] (2000-2007) Omen
1 | 0

0 | 2664

10

2016-03-07 15:00
Omen Latest
./templates/default/images/folder_dl.gif Драйверы SamDrivers v.20.8 – Сборник драйверов для Windows [2020, Rus/Multi, 32bit/64bit] DED
1 | 0

0 | 229

3

2020-08-29 12:38
DED Latest
Display posts from previous:    
Reply to topic

The time now is: Today 15:28

All times are GMT + 3 Hours



You cannot post new topics in this forum
You cannot reply to topics in this forum
You cannot edit your posts in this forum
You cannot delete your posts in this forum
You cannot vote in polls in this forum
You cannot attach files in this forum
You cannot download files in this forum