Today is a free download without charge Download

У девушки с Острова Пасхи (Софья Меламуд) [2012, мультфильм, DVDScreener]

Reply to topic
 
Author
Message

Omen ®

Longevity: 7 years 11 months

Posts: 181087

Торрент-статистика

Post 07-Jan-2015 12:00

[Quote]

У девушки с Острова Пасхи
Страна: Россия
Жанр: мультфильм
Продолжительность: 00:07:05
Год выпуска: 2012
Русские субтитры: нет
Режиссёр: Софья Меламуд
Описание: Неожиданная трактовка знаменитой песни Александра Городницкого о девушке с острова Пасхи. Оказывается, дело вовсе не в тиграх.
Доп. информация: Открытый фестиваль анимационного кино, Суздаль (Россия), 2013
Большой фестиваль мультфильмов, Москва (Россия), 2012
Качество: DVDScreener
Формат: AVI
Видео: DIVX, 720x416, 25fps, 1981kbps
Аудио: MPEG Layer 3, 48 kHz, 2ch, 192kbps
Субтитры: отсутствуют

Подробные технические данные

Полное имя : У девушки с острова Пасхи.aviФормат : AVIФормат/Информация : Audio Video InterleaveРазмер файла : 111 МбайтПродолжительность : 7 м. 5 с.Общий поток : 2183 Кбит/секПрограмма кодирования : VirtualDubMod 1.5.10.3 | www.virtualdub-fr.org || (build 2550/release)Библиотека кодирования : VirtualDubMod build 2550/release
ВидеоИдентификатор : 0Формат : MPEG-4 VisualПрофиль формата : Advanced [email protected]Параметр BVOP формата : 1Параметр QPel формата : НетПараметр GMC формата : Без точки переходаПараметр матрицы формата : Default (H.263)Идентификатор кодека : DIVXИдентификатор кодека/Информация : Project MayoИдентификатор кодека/Подсказка : DivX 4Продолжительность : 7 м. 5 с.Битрейт : 1981 Кбит/секШирина : 720 пикселейВысота : 416 пикселейСоотношение сторон : 1,731Частота кадров : 25,000 кадров/секЦветовое пространство : YUVСубдискретизация насыщенности : 4:2:0Битовая глубина : 8 битТип развёртки : ПрогрессивнаяМетод сжатия : С потерямиБит/(Пиксели*Кадры) : 0.265Размер потока : 101 Мбайт (91%)Библиотека кодирования : XviD 1.2.1 (UTC 2008-12-04)
АудиоИдентификатор : 1Формат : MPEG AudioВерсия формата : Version 1Профиль формата : Layer 3Идентификатор кодека : 55Идентификатор кодека/Подсказка : MP3Продолжительность : 7 м. 5 с.Вид битрейта : ПостоянныйБитрейт : 192 Кбит/секКаналы : 2 каналаЧастота : 48,0 КГцМетод сжатия : С потерямиРазмер потока : 9,74 Мбайт (9%)Выравнивание : Соединение по промежуткамПродолжительность промежутка : 40 мс. (1,00 видеокадр)Время предзагрузки промежутка : 504 мс.Библиотека кодирования : LAME3.99rНастройки программы : -m s -V 4 -q 0 -lowpass 18.6 -b 192

Скриншоты



Other forum [Profile] [PM]
Display posts from previous:    
Reply to topic

The time now is: Today 14:36

All times are GMT + 3 Hours



You cannot post new topics in this forum
You cannot reply to topics in this forum
You cannot edit your posts in this forum
You cannot delete your posts in this forum
You cannot vote in polls in this forum
You cannot attach files in this forum
You cannot download files in this forum