Today is a free download without charge Download

Аистёнок / За горами, за морями / Kurepoeg (Эльберт Туганов / Elbert Tuganov) [1967, мультфильм, VHSRip]

Reply to topic
 
Author
Message

Omen ®

Longevity: 8 years 11 months

Posts: 181086

Торрент-статистика

Post 06-Jan-2015 09:32

[Quote]

Аистёнок / За горами, за морями / Kurepoeg
Страна: СССР (Эстонская республика)
Жанр: мультфильм
Продолжительность: 00:18:43
Год выпуска: 1967
Перевод: не требуется
Русские субтитры: нет
Режиссёр: Эльберт Туганов / Elbert Tuganov
Описание: Рассказ о приключениях маленького аистёнка, летающего при помощи специального двигателя. Во время полёта в тёплые края аистёнок попал в песчаный смерч, побывал в племени папуасов и познакомился с чернокожим парнишкой, вместе с которым они поймали грабителя египетской гробницы.
Качество: VHSRip
Формат: AVI
Видео: 2380 kbps, 720х544 (4:3), 25.000 fps, MPEG-4 Visual (XviD)
Аудио: 128 kbps, 48.0 kHz, 2 channels, MPEG Audio (MP3)
Субтитры: отсутствуют

Подробные технические данные

GeneralComplete name : Kurepoeg (1967).aviFormat : AVIFormat/Info : Audio Video InterleaveFile size : 337 MiBDuration : 18mn 43sOverall bit rate : 2 518 KbpsWriting application : VirtualDubMod 1.5.4.1 (build 2178/release)Writing library : VirtualDubMod build 2178/release
VideoID : 0Format : MPEG-4 VisualFormat profile : Advanced [email protected] settings, BVOP : 1Format settings, QPel : NoFormat settings, GMC : No warppointsFormat settings, Matrix : CustomCodec ID : XVIDCodec ID/Hint : XviDDuration : 18mn 43sBit rate : 2 380 KbpsWidth : 720 pixelsHeight : 544 pixelsDisplay aspect ratio : 4:3Frame rate : 25.000 fpsColor space : YUVChroma subsampling : 4:2:0Bit depth : 8 bitsScan type : ProgressiveCompression mode : LossyBits/(Pixel*Frame) : 0.243Stream size : 319 MiB (95%)Writing library : XviD 1.0.0 (UTC 2004-05-09)
AudioID : 1Format : MPEG AudioFormat version : Version 1Format profile : Layer 3Mode : Joint stereoMode extension : MS StereoCodec ID : 55Codec ID/Hint : MP3Duration : 18mn 43sBit rate mode : ConstantBit rate : 128 KbpsChannel(s) : 2 channelsSampling rate : 48.0 KHzCompression mode : LossyStream size : 17.1 MiB (5%)Alignment : Aligned on interleavesInterleave, duration : 40 ms (1.00 video frame)Interleave, preload duration : 504 ms

Скриншоты

Other forum [Profile] [PM]
Display posts from previous:    
Reply to topic

The time now is: Today 05:10

All times are GMT + 3 Hours



You cannot post new topics in this forum
You cannot reply to topics in this forum
You cannot edit your posts in this forum
You cannot delete your posts in this forum
You cannot vote in polls in this forum
You cannot attach files in this forum
You cannot download files in this forum