Today is a free download without charge Download

Обезьянка Фипс / Ahvipoeg Fips (Эльберт Туганов / Elbert Tuganov) [1968, мультфильм, VHSRip]

Reply to topic
 
Author
Message

Omen ®

Longevity: 7 years 11 months

Posts: 181087

Торрент-статистика

Post 05-Jan-2015 12:02

[Quote]

Обезьянка Фипс / Ahvipoeg Fips
Страна: СССР (Эстонская республика)
Жанр: мультфильм
Продолжительность: 00:09:24
Год выпуска: 1968
Перевод: не требуется
Русские субтитры: нет
Режиссёр: Эльберт Туганов / Elbert Tuganov
Описание: Мультфильм для малышей по книжке Вильгельма Буша.
История озорной обезьянки, которую из джунглей Африки привезли в цивилизованный город, где ей пришлось сменить несколько хозяев. Но настоящая обезьянка никогда не забудет свои джунгли...
Качество: VHSRip
Формат: AVI
Видео: 2303 kbps, 720х544 (4:3), 25.000 fps, MPEG-4 Visual (XviD)
Аудио: 128 kbps, 48.0 kHz, 2 channels, MPEG Audio (MP3)
Субтитры: отсутствуют

Подробные технические данные

General
Complete name : Ahvipoeg Fips (1968).avi
Format : AVI
Format/Info : Audio Video Interleave
File size : 164 MiB
Duration : 9mn 24s
Overall bit rate : 2 441 Kbps
Writing application : VirtualDubMod 1.5.4.1 (build 2178/release)
Writing library : VirtualDubMod build 2178/release
Video
ID : 0
Format : MPEG-4 Visual
Format profile : Advanced [email protected]
Format settings, BVOP : 1
Format settings, QPel : No
Format settings, GMC : No warppoints
Format settings, Matrix : Custom
Codec ID : XVID
Codec ID/Hint : XviD
Duration : 9mn 24s
Bit rate : 2 303 Kbps
Width : 720 pixels
Height : 544 pixels
Display aspect ratio : 4:3
Frame rate : 25.000 fps
Color space : YUV
Chroma subsampling : 4:2:0
Bit depth : 8 bits
Scan type : Progressive
Compression mode : Lossy
Bits/(Pixel*Frame) : 0.235
Stream size : 155 MiB (94%)
Writing library : XviD 1.0.0 (UTC 2004-05-09)
Audio
ID : 1
Format : MPEG Audio
Format version : Version 1
Format profile : Layer 3
Mode : Joint stereo
Mode extension : MS Stereo
Codec ID : 55
Codec ID/Hint : MP3
Duration : 9mn 24s
Bit rate mode : Constant
Bit rate : 128 Kbps
Channel(s) : 2 channels
Sampling rate : 48.0 KHz
Compression mode : Lossy
Stream size : 8.62 MiB (5%)
Alignment : Aligned on interleaves
Interleave, duration : 40 ms (1.00 video frame)
Interleave, preload duration : 504 ms

Скриншоты

Other forum [Profile] [PM]
Display posts from previous:    
Reply to topic

The time now is: Today 19:54

All times are GMT + 3 Hours



You cannot post new topics in this forum
You cannot reply to topics in this forum
You cannot edit your posts in this forum
You cannot delete your posts in this forum
You cannot vote in polls in this forum
You cannot attach files in this forum
You cannot download files in this forum