Today is a free download without charge Download

Уолт Дисней - Полный комплект (ЧАСТЬ 2) / Walt Disney collection (PART 2) (Уолт Дисней / Walt Disney) [1924-2010, мультфильмы, мюзикл, BDRemux, WEB-DL] VO + AVO + MVO + Dub + Subs

Reply to topic
 
Author
Message

Omen ®

Longevity: 8 years

Posts: 181087

Торрент-статистика

Post 01-Jan-2015 17:00

[Quote]

- Страна: США
Жанр: Анимация, мультсериал, комедия, мюзикл...
Продолжительность: ~7 мин (короткометражки), ~90 мин (полнометражки)
Год выпуска: 1924-2010
Режиссёр: Уолт Дисней / Walt Disney...
Качество: BD-Remux | WEB-DL
Формат: MKV
Видео: AVC | 1920x1080 / 720x480 / 1480x1080 | 23.976 / 29.970 fps | ~23.5-36.0 Mbps | ~0.473-0.725 bit/pixel
Аудио: AC3/AAC, 48 kHz, 192...640 kb/s, mono/stereo/5.1
Субтитры (выборочно): Русские, Английские, Финские, Датские, Норвежские...

Подробные технические данные

BD-Remux

ОбщееУникальный идентификатор : 224598507224649647301038188714939186224 (0xA8F8195B87454E9597936EC17454FC30)Полное имя : ...\[DISNEY]\DISNEY\1953-11-11 [C&D]+[DD] Working for Peanuts {BD} {C} [ЖИВОВ]+[ОШУРКОВ]+[RXM003]+[НЕВАФИЛЬМ]+[ENG+sub]+[COMM].mkvФормат : MatroskaВерсия формата : Version 4 / Version 2Размер файла : 1,25 ГбайтПродолжительность : 6 м. 54 с.Режим общего битрейта : ПеременныйОбщий поток : 25,9 Мбит/секДата кодирования : UTC 2014-12-30 21:30:14Программа кодирования : mkvmerge v6.3.0 ('You can't stop me!') built on Jun 28 2013 20:09:41Библиотека кодирования : libebml v1.3.0 + libmatroska v1.4.0
ВидеоИдентификатор : 1Формат : AVCФормат/Информация : Advanced Video CodecПрофиль формата : [email protected]Параметр CABAC формата : ДаПараметр ReFrames формата : 3 кадраИдентификатор кодека : V_MPEG4/ISO/AVCВид битрейта : ПеременныйБитрейт : 23,5 Мбит/секМаксимальный битрейт : 40,0 Мбит/секШирина : 1920 пикс.Высота : 1080 пикс.Соотношение сторон : 16:9Режим частоты кадров : ПеременныйЧастота кадров в оригинале : 23,976 кадр/секСтандарт вещания : NTSCЦветовое пространство : YUVПодвыборка цветности : 4:2:0Битовая глубина : 8 битТип развёртки : ПрогрессивнаяDefault : ДаForced : Нет
Аудио #1Идентификатор : 2Формат : AC-3Формат/Информация : Audio Coding 3Расширение режима : CM (complete main)Параметр Endianness формата : BigИдентификатор кодека : A_AC3Продолжительность : 6 м. 54 с.Вид битрейта : ПостоянныйБитрейт : 256 Кбит/секКаналы : 2 каналаРасположение каналов : Front: L RЧастота : 48,0 КГцБитовая глубина : 16 битМетод сжатия : С потерямиРазмер потока : 12,7 Мбайт (1%)Заголовок : ЖивовЯзык : RussianDefault : ДаForced : Нет
Аудио #2Идентификатор : 3Формат : AC-3Формат/Информация : Audio Coding 3Расширение режима : CM (complete main)Параметр Endianness формата : BigИдентификатор кодека : A_AC3Продолжительность : 6 м. 54 с.Вид битрейта : ПостоянныйБитрейт : 256 Кбит/секКаналы : 2 каналаРасположение каналов : Front: L RЧастота : 48,0 КГцБитовая глубина : 16 битМетод сжатия : С потерямиРазмер потока : 12,7 Мбайт (1%)Заголовок : ОшурковЯзык : RussianDefault : НетForced : Нет
Аудио #3Идентификатор : 4Формат : AC-3Формат/Информация : Audio Coding 3Расширение режима : CM (complete main)Параметр Endianness формата : BigИдентификатор кодека : A_AC3Продолжительность : 6 м. 54 с.Вид битрейта : ПостоянныйБитрейт : 256 Кбит/секКаналы : 2 каналаРасположение каналов : Front: L RЧастота : 48,0 КГцБитовая глубина : 16 битМетод сжатия : С потерямиРазмер потока : 12,7 Мбайт (1%)Заголовок : RXM003Язык : RussianDefault : НетForced : Нет
Аудио #4Идентификатор : 5Формат : AC-3Формат/Информация : Audio Coding 3Расширение режима : CM (complete main)Параметр Endianness формата : BigИдентификатор кодека : A_AC3Продолжительность : 6 м. 54 с.Вид битрейта : ПостоянныйБитрейт : 256 Кбит/секКаналы : 2 каналаРасположение каналов : Front: L RЧастота : 48,0 КГцБитовая глубина : 16 битМетод сжатия : С потерямиРазмер потока : 12,7 Мбайт (1%)Заголовок : НевафильмЯзык : RussianDefault : НетForced : Нет
Аудио #5Идентификатор : 6Формат : AC-3Формат/Информация : Audio Coding 3Расширение режима : CM (complete main)Параметр Endianness формата : BigИдентификатор кодека : A_AC3Продолжительность : 6 м. 54 с.Вид битрейта : ПостоянныйБитрейт : 640 Кбит/секКаналы : 6 каналовРасположение каналов : Front: L C R, Side: L R, LFEЧастота : 48,0 КГцБитовая глубина : 16 битМетод сжатия : С потерямиРазмер потока : 31,6 Мбайт (2%)Заголовок : EnglishЯзык : EnglishDefault : НетForced : Нет
Аудио #6Идентификатор : 7Формат : AC-3Формат/Информация : Audio Coding 3Расширение режима : CM (complete main)Параметр Endianness формата : BigИдентификатор кодека : A_AC3Продолжительность : 6 м. 54 с.Вид битрейта : ПостоянныйБитрейт : 192 Кбит/секКаналы : 2 каналаРасположение каналов : Front: L RЧастота : 48,0 КГцБитовая глубина : 16 битМетод сжатия : С потерямиЗадержка видео : 6 мс.Размер потока : 9,49 Мбайт (1%)Заголовок : CommentaryЯзык : EnglishDefault : НетForced : Нет
Текст #1Идентификатор : 8Формат : VobSubРежим смешивания : zlibИдентификатор кодека : S_VOBSUBИдентификатор кодека/Информация: The same subtitle format used on DVDsЯзык : EnglishDefault : ДаForced : Нет
Текст #2Идентификатор : 9Формат : VobSubРежим смешивания : zlibИдентификатор кодека : S_VOBSUBИдентификатор кодека/Информация: The same subtitle format used on DVDsЯзык : EnglishDefault : НетForced : Нет
Текст #3Идентификатор : 10Формат : PGSРежим смешивания : zlibИдентификатор кодека : S_HDMV/PGSИдентификатор кодека/Информация: The same subtitle format used on BDs/HD-DVDsЯзык : SpanishDefault : НетForced : Нет
Текст #4Идентификатор : 11Формат : PGSРежим смешивания : zlibИдентификатор кодека : S_HDMV/PGSИдентификатор кодека/Информация: The same subtitle format used on BDs/HD-DVDsЯзык : FrenchDefault : НетForced : Нет
Текст #5Идентификатор : 12Формат : PGSРежим смешивания : zlibИдентификатор кодека : S_HDMV/PGSИдентификатор кодека/Информация: The same subtitle format used on BDs/HD-DVDsЯзык : ItalianDefault : НетForced : Нет
Текст #6Идентификатор : 13Формат : PGSРежим смешивания : zlibИдентификатор кодека : S_HDMV/PGSИдентификатор кодека/Информация: The same subtitle format used on BDs/HD-DVDsЯзык : GermanDefault : НетForced : Нет
Текст #7Идентификатор : 14Формат : PGSРежим смешивания : zlibИдентификатор кодека : S_HDMV/PGSИдентификатор кодека/Информация: The same subtitle format used on BDs/HD-DVDsЯзык : SpanishDefault : НетForced : Нет
Текст #8Идентификатор : 15Формат : PGSРежим смешивания : zlibИдентификатор кодека : S_HDMV/PGSИдентификатор кодека/Информация: The same subtitle format used on BDs/HD-DVDsЯзык : DutchDefault : НетForced : Нет
Текст #9Идентификатор : 16Формат : PGSРежим смешивания : zlibИдентификатор кодека : S_HDMV/PGSИдентификатор кодека/Информация: The same subtitle format used on BDs/HD-DVDsЯзык : ChineseDefault : НетForced : Нет
Текст #10Идентификатор : 17Формат : PGSРежим смешивания : zlibИдентификатор кодека : S_HDMV/PGSИдентификатор кодека/Информация: The same subtitle format used on BDs/HD-DVDsЯзык : KoreanDefault : НетForced : Нет
Текст #11Идентификатор : 18Формат : PGSРежим смешивания : zlibИдентификатор кодека : S_HDMV/PGSИдентификатор кодека/Информация: The same subtitle format used on BDs/HD-DVDsЯзык : FrenchDefault : НетForced : Нет

WEB-DL

ОбщееУникальный идентификатор : 209829770989838305977275235479858091143 (0x9DDBBE715DA3F75195B9A4C5CDCA9487)Полное имя : ...\[DISNEY]\DISNEY\1937-12-25 [DD]+[GOOFY]+[MM] Lonesome Ghosts {WEB-DL 1080p} {C} [ДОХАЛОВx2]+[ПРЯМОСТАНОВ]+[ВИЗГУНОВ]+[RXM006]+[ОРТ]+[НЕВАФИЛЬМ'2004]+[DVD Магия]+[MVOx3]+[ENG+sub].mkvФормат : MatroskaВерсия формата : Version 4 / Version 2Размер файла : 529 МбайтПродолжительность : 8 м. 50 с.Общий поток : 8367 Кбит/секДата кодирования : UTC 2014-12-30 21:51:12Программа кодирования : mkvmerge v6.3.0 ('You can't stop me!') built on Jun 28 2013 20:09:41Библиотека кодирования : libebml v1.3.0 + libmatroska v1.4.0Attachment : Yes
ВидеоИдентификатор : 1Формат : AVCФормат/Информация : Advanced Video CodecПрофиль формата : [email protected]Параметр CABAC формата : ДаПараметр ReFrames формата : 5 кадровИдентификатор кодека : V_MPEG4/ISO/AVCПродолжительность : 8 м. 50 с.Ширина : 1480 пикс.Высота : 1080 пикс.Соотношение сторон : 1,370Режим частоты кадров : ПостоянныйЧастота кадров : 23,976 кадр/секЦветовое пространство : YUVПодвыборка цветности : 4:2:0Битовая глубина : 8 битТип развёртки : ПрогрессивнаяЯзык : EnglishDefault : ДаForced : НетОсновные цвета : BT.709Характеристики трансфера : BT.709Коэффициенты матрицы : BT.709
Аудио #1Идентификатор : 2Формат : AC-3Формат/Информация : Audio Coding 3Расширение режима : CM (complete main)Параметр Endianness формата : BigИдентификатор кодека : A_AC3Продолжительность : 8 м. 50 с.Вид битрейта : ПостоянныйБитрейт : 256 Кбит/секКаналы : 2 каналаРасположение каналов : Front: L RЧастота : 48,0 КГцБитовая глубина : 16 битМетод сжатия : С потерямиРазмер потока : 16,2 Мбайт (3%)Заголовок : Дохалов (1)Язык : RussianDefault : ДаForced : Нет
Аудио #2Идентификатор : 3Формат : AC-3Формат/Информация : Audio Coding 3Расширение режима : CM (complete main)Параметр Endianness формата : BigИдентификатор кодека : A_AC3Продолжительность : 8 м. 50 с.Вид битрейта : ПостоянныйБитрейт : 256 Кбит/секКаналы : 2 каналаРасположение каналов : Front: L RЧастота : 48,0 КГцБитовая глубина : 16 битМетод сжатия : С потерямиРазмер потока : 16,2 Мбайт (3%)Заголовок : Дохалов (2)Язык : RussianDefault : НетForced : Нет
Аудио #3Идентификатор : 4Формат : AC-3Формат/Информация : Audio Coding 3Расширение режима : CM (complete main)Параметр Endianness формата : BigИдентификатор кодека : A_AC3Продолжительность : 8 м. 50 с.Вид битрейта : ПостоянныйБитрейт : 256 Кбит/секКаналы : 2 каналаРасположение каналов : Front: L RЧастота : 48,0 КГцБитовая глубина : 16 битМетод сжатия : С потерямиРазмер потока : 16,2 Мбайт (3%)Заголовок : ПрямостановЯзык : RussianDefault : НетForced : Нет
Аудио #4Идентификатор : 5Формат : AC-3Формат/Информация : Audio Coding 3Расширение режима : CM (complete main)Параметр Endianness формата : BigИдентификатор кодека : A_AC3Продолжительность : 8 м. 50 с.Вид битрейта : ПостоянныйБитрейт : 256 Кбит/секКаналы : 2 каналаРасположение каналов : Front: L RЧастота : 48,0 КГцБитовая глубина : 16 битМетод сжатия : С потерямиРазмер потока : 16,2 Мбайт (3%)Заголовок : ВизгуновЯзык : RussianDefault : НетForced : Нет
Аудио #5Идентификатор : 6Формат : AC-3Формат/Информация : Audio Coding 3Расширение режима : CM (complete main)Параметр Endianness формата : BigИдентификатор кодека : A_AC3Продолжительность : 8 м. 50 с.Вид битрейта : ПостоянныйБитрейт : 256 Кбит/секКаналы : 2 каналаРасположение каналов : Front: L RЧастота : 48,0 КГцБитовая глубина : 16 битМетод сжатия : С потерямиРазмер потока : 16,2 Мбайт (3%)Заголовок : RXM006Язык : RussianDefault : НетForced : Нет
Аудио #6Идентификатор : 7Формат : AC-3Формат/Информация : Audio Coding 3Расширение режима : CM (complete main)Параметр Endianness формата : BigИдентификатор кодека : A_AC3Продолжительность : 8 м. 50 с.Вид битрейта : ПостоянныйБитрейт : 256 Кбит/секКаналы : 2 каналаРасположение каналов : Front: L RЧастота : 48,0 КГцБитовая глубина : 16 битМетод сжатия : С потерямиРазмер потока : 16,2 Мбайт (3%)Заголовок : ОРТЯзык : RussianDefault : НетForced : Нет
Аудио #7Идентификатор : 8Формат : AC-3Формат/Информация : Audio Coding 3Расширение режима : CM (complete main)Параметр Endianness формата : BigИдентификатор кодека : A_AC3Продолжительность : 8 м. 50 с.Вид битрейта : ПостоянныйБитрейт : 256 Кбит/секКаналы : 2 каналаРасположение каналов : Front: L RЧастота : 48,0 КГцБитовая глубина : 16 битМетод сжатия : С потерямиРазмер потока : 16,2 Мбайт (3%)Заголовок : Невафильм (2004)Язык : RussianDefault : НетForced : Нет
Аудио #8Идентификатор : 9Формат : AC-3Формат/Информация : Audio Coding 3Расширение режима : CM (complete main)Параметр Endianness формата : BigИдентификатор кодека : A_AC3Продолжительность : 8 м. 50 с.Вид битрейта : ПостоянныйБитрейт : 256 Кбит/секКаналы : 2 каналаРасположение каналов : Front: L RЧастота : 48,0 КГцБитовая глубина : 16 битМетод сжатия : С потерямиРазмер потока : 16,2 Мбайт (3%)Заголовок : DVD МагияЯзык : RussianDefault : НетForced : Нет
Аудио #9Идентификатор : 10Формат : AC-3Формат/Информация : Audio Coding 3Расширение режима : CM (complete main)Параметр Endianness формата : BigИдентификатор кодека : A_AC3Продолжительность : 8 м. 50 с.Вид битрейта : ПостоянныйБитрейт : 256 Кбит/секКаналы : 2 каналаРасположение каналов : Front: L RЧастота : 48,0 КГцБитовая глубина : 16 битМетод сжатия : С потерямиРазмер потока : 16,2 Мбайт (3%)Заголовок : Многоголоска (1)Язык : RussianDefault : НетForced : Нет
Аудио #10Идентификатор : 11Формат : AC-3Формат/Информация : Audio Coding 3Расширение режима : CM (complete main)Параметр Endianness формата : BigИдентификатор кодека : A_AC3Продолжительность : 8 м. 50 с.Вид битрейта : ПостоянныйБитрейт : 256 Кбит/секКаналы : 2 каналаРасположение каналов : Front: L RЧастота : 48,0 КГцБитовая глубина : 16 битМетод сжатия : С потерямиРазмер потока : 16,2 Мбайт (3%)Заголовок : Многоголоска (2)Язык : RussianDefault : НетForced : Нет
Аудио #11Идентификатор : 12Формат : AC-3Формат/Информация : Audio Coding 3Расширение режима : CM (complete main)Параметр Endianness формата : BigИдентификатор кодека : A_AC3Продолжительность : 8 м. 50 с.Вид битрейта : ПостоянныйБитрейт : 256 Кбит/секКаналы : 2 каналаРасположение каналов : Front: L RЧастота : 48,0 КГцБитовая глубина : 16 битМетод сжатия : С потерямиРазмер потока : 16,2 Мбайт (3%)Заголовок : Многоголоска (3)Язык : RussianDefault : НетForced : Нет
Аудио #12Идентификатор : 13Формат : AACФормат/Информация : Advanced Audio CodecПрофиль формата : LCИдентификатор кодека : A_AACПродолжительность : 8 м. 50 с.Каналы : 2 каналаРасположение каналов : Front: L RЧастота : 48,0 КГцМетод сжатия : С потерямиЗаголовок : EnglishЯзык : EnglishDefault : НетForced : Нет
ТекстИдентификатор : 14Формат : VobSubРежим смешивания : zlibИдентификатор кодека : S_VOBSUBИдентификатор кодека/Информация: The same subtitle format used on DVDsЗаголовок : EnglishЯзык : EnglishDefault : ДаForced : Нет
Подробнейшие базы тех. данных по каждому файлу (2014-12-31) Перевод | Озвучка | Субтитры

Авторский (одноголосный закадровый)
American video, Антонов Николай, Визгунов Сергей (ранний/поздний), Гаврилов, Горчаков, Гранкин, Дольский, Дохалов, Дружинина, Живов, Кузнецов, Марченко, Михалёв, Немахов, Ошурков (Техинвест), Прямостанов, Санаев, RXM001, RXM002, RXM003, RXM004, RXM005, RXM006-
Профессиональный (многоголосный закадровый)
Гланц Пётр, DVD-Магия (~2003), ИДДК (~2004-2005), NEW DREAM MEDIA (~2006), МЬЮЗИК ТРЕЙД (~2007-2008), Дивайс (~2012), ТВИК-Профессиональный (дублированный)
Невафильм, ОРТ, Пифагор, СССР, Дубляж-
Иностранные языки
Английский, итальянский-Дополнительные аудиодорожки
Аудиокомментарии (англ.)-Субтитры
Английские, Финские, Датские, Норвежские...-

Какое богатое воображение у "многоголосников"!

Весёлая симфония (конечно! прям такая "весёлая", шо просто жесть )
Весёлые мелодии (даааа, ага, ещё таким гнуууусно-весёлым голосом это озвучивается, так и хочется назвать такого диктора... о точно! Предлагаю назвать "ГНУСные мелодии" - звучит же! )
Глупые симфонии (звучит не очень, но хотя бы более-менее отражает исходный вариант; кстати, как минимум два варианта MVO разных так называли и голоса схожи)
Забавные мелодии (ну вроде ещё ничего, пойдёт, и звучит получше "глупых", только почему "мелодии"???)
Забавные симфонии (ну вот, избавились от недостатка предыдущего варианта )
Нелепая симфония (ага, надо ж и единственное с множественным числом перепутать - а как же! Впрочем, почти все вышеперечисленные страдают этим)
Ещё вроде где-то слышал... "Дурацкие симфонии" (не могу найти вот теперь)... тут вообще без комментариев
Описание мегапроекта
Представляю вашему вниманию свой очередной многолетний масштабный проект. Он начал собираться практически параллельно с Merrie melodies / Looney tunes, но лишь относительно освободив себя от одного проекта, можно было вплотную заняться другим. Но время также сыграло мне на руку, т.к. с годами параллельно собирался и материал: видео, переводы с кассеты, выкачивался и сравнивался материал из многочисленных источников. В качестве основы раздачи я использовал эту коллекцию в NTSC, но также значительную часть заменил на такую же коллекцию, но в PAL, где оказалось лучшее качество видео, отсутствие во многих сериях интерлейса, а также... оригинальный, нереставрируемый английский звук! (В NTSC он оказался чищенный, причем не всегда очень удачно ).
Целью проекта было собрать и чётко упорядочить все серии этого мегасериала в лучшем качестве настолько, насколько это вообще возможно (впрочем, без максимального фанатизма, иначе проект бы никогда не вышел в свет ), а также добавить русские переводы, которые удалось за всё это время собрать по интернету и частным коллекциям пользователей. Я очень благодарен всем, кто в той или иной степени помогал мне в достижении поставленной цели.
Спасибо большое
: 21Sepsis, afedrenkv, ALEKS KV, alenavova, AleXounDirector, Azureus, bora86bora, d_rocker, duckling, edsz, Genry13, GVR232, I_Am_Hell, kiruxa-k, Krasnovv, ksenia.bogd, lex2085, LTMMEXDIS, multmir, Myline, Offizier, paradox22222, Primin, pupsik197, Serega7930, Stepanenko P.V., Swend, xfiles, агент смит... и всем, чьи имена по разным причинам потонули в беззвестности. Спасибо всем вам!

Расшифровка обозначений всех тегов в названиях серий

19XX-XX-XX - дата выпуска серии
{BW} - Чёрно-белая версия
{C} - Цветная версия
{O} - Original
{V2} - 2-3 версии (2-3 видео)
{SHORT} - короткие версии, но 5.1
{FULL} - полная версия
{TC} - театральная версия
{alternate} - альтернативная версия
[C&D] - Чип и Дэйл
[DD] - Дональд Дак
[FIGARO] - Котёнок Фигаро
[GOOFY] - Гуфи
[HDL] - Хьюи, Дьюи, Луи (Билли, Вилли, Дилли)
[HTB] - Humphrey the Bear
[JC] - Jiminy Cricket
[MM] - Микки Маус
[OR] - Кролик Освальд
[PLUTO] - Плуто
[SCROOGE] - Скрудж
{BD} - серии в блюрей качестве
{DVD} - DVD качество
{LQ} - низкое качество
{VHS} - VHS оцифровка
{DISNEY} - запись с канала Disney
[ENG] - Оригинальный английский звук
[MVO] - Русский 2-х и более голосный перевод
[AVO] (или фамилия переводчика) - Русский авторский перевод (1 голос)
[RXM] (+номер) - база RoxMarty по неопределённым "авторским" переводчикам
[COMM] - Комментарии на английском
[...+sub] - наличие как минимум английских субтитров
[...+rus] - наличие как минимум русских субтитров
ВНИМАНИЕ
Данный релиз включает в себя только ВТОРУЮ часть мегаколлекции, включающий в себя ВСЕ серии (и бонусы), кроме тех, что не вышли и не удалось отыскать в BD или WEB-DL качестве.Ищутся для последующих обновлений
:
авторские (или любые русские) переводы, которых нет в раздаче этого мультсериала (или есть в более худшем качестве)!
видеозаписи с видеокассет/LD полноценных сборников диснеевских короткометражек из серий и другие, где имеются небольшие междусерийные вставки


Прошу, покопаться в своих архивах, возможно, на дописях видеокассет - там обычно оседает хотя бы по паре мультфильмов данной серии. Жду ваших новых дорожек и видеооцифровок для продолжения работы над проектом. Очень желательным условием является указание списка названий оцифрованных серий в оригинале (на английском)! Иначе... сами понимаете... тысяча серий

Общий список Walt Disney Cartoon Classics

Walt Disney Cartoon Classics - Version 2:
Vol. 1: Here's Mickey!
Vol. 2: Here's Donald!
Vol. 3: Here's Goofy!
Vol. 4: Silly Symphonies!
Vol. 5: Here's Pluto!
Vol. 6: Starring Mickey & Minnie
Vol. 7: Starring Donald & Daisy
Vol. 8: Starring Silly Symphonies: Animals Two by Two
Vol. 9: Starring Chip 'n' Dale
Vol. 10: Starring Pluto & Fifi
Vol. 11: Mickey and the Gang
Vol. 12: Nuts About Chip 'n' Dale
Vol. 13: Donald's Scary Tales
Vol. 14: Halloween Haunts
Special Edition
Special Edition - Happy Summer Days
Special Edition - Fun on the Job!
Special Edition - The Goofy World of Sports
(список серий в выпусках)
Выглядит это на VHS как-то так

Также из первой "версии" (Walt Disney Cartoon Classics - Version 1) наверняка что-то должно было быть, например, вот наличие этого точно сумел вычислить по аудиодорожкам:
Walt Disney Cartoon Classics - Version 1 (далее названия выпусков):
1983 Pluto
Пока всё.
Обычно все эти выпуски могли идти в беспорядочной куче друг за другом, совмещаться на многочасовой кассете с другими короткометражками (и даже из других студий...), а также Мини-классикой
Walt Disney Mini-Classics
-P.S. Как всё это именовалось на VHS - я толком и не знаю. Начиная от "мультики У. Диснея", кончая банальным "мультфильмы", а то и вовсе идти на дописках к фильмам (как раз один выпуск и Walt Disney Cartoon Classics - Version 2 состоит из трёх серий - и всё это укладывается минут в 20-25 - идеально для дописок ) А может быть и типа "Микки Маус, Дональд, Гуфи, Плуто..."
Также приглашаются желающие перевести серии, в которых совсем нет никакого перевода (а также перевести бонусную часть). К части серий и бонусов имеются английские субтитры. Вряд ли кто, конечно, отликнется на сей призыв, но попробовать стОит! Рекомендую также ознакомиться с другими моими полными коллекциями мультсериалов

Обновления раздач (сводное для обоих частей)

Пока не планируется

ВНИМАНИЕ! Перед тем, как обновлять обе раздачи новым торрент файлом, необходимо обязательно скачать и запустить вот этот файлик:
***********
И положить его в папку, где лежат ВСЕ серии. Затем запустить и подождать.
Его функция - автоматическое приведение файлов обоих раздач в необходимый порядок! То есть удаление лишнего (что заменится новым торрентом), переименовка и сортировка - чего следует.
Этот файл создан и сертифицирован лично мной, поэтому даю гарантию его корректного выполнения при условии соблюдения вышеуказанных условий.
Other forum [Profile] [PM]

Dracula

Longevity: 7 years 1 month

Posts: 11386

Торрент-статистика

Post 01-Jan-2015 17:26 (after 26 minutes)

Топик был перенесен из форума Мультфильмы (HD) в форум Мультфильмы


Геннадич
 
Display posts from previous:    
Reply to topic

The time now is: Today 11:58

All times are GMT + 3 Hours



You cannot post new topics in this forum
You cannot reply to topics in this forum
You cannot edit your posts in this forum
You cannot delete your posts in this forum
You cannot vote in polls in this forum
You cannot attach files in this forum
You cannot download files in this forum