Today is a free download without charge Download

Приключения поросёнка Фунтика (1986) DVDRip

Reply to topic
 
Author
Message

Omen ®

Longevity: 7 years 11 months

Posts: 181087

Торрент-статистика

Post 29-Dec-2014 22:31

[Quote]

Приключения поросёнка Фунтика (1986-1988) - Год выпуска: 1986-1988
Производство: СССР / ТО "Экран"
Жанр: Мультфильм, Короткометражка
Описание фильма:
Один из самых добрых и трогательных детских персонажей - поросенок Фунтик (четыре серии, объединенные в один файл).
Все свое детство он провел у госпожи Белодонны, обманывая бедных детишек, и собирая для своей госпожи деньги. Но ему удалось сбежать и он оказался у замечательного клоуна Фокуса-Мокуса. Вместе с ним на его фургончике он начинает совсем другую интересную жизнь. Но госпожа Белодонна не хочет так просто отдавать свое сокровище, и нанимает пару сыщиков для поиска поросенка. Только вот сыщики не могут его найти и раз за разом терпят неудачу...
Режиссер: Анатолий Солин
Сценарий: Юрий Фридман, Валерий Шульжик
Композитор: Владимир Львовский
Роли озвучивают: Армен Джигарханян, Ирина Муравьёва, Ольга Аросева, Юрий Волынцев, Спартак Мишулин, Зоя Пыльнова, Анатолий Баранцев
Продолжительность: 00:39:24
Качество видео: DVDRip
Видео: MPEG-4 XviD, 720x544 (4:3), 25.000 fps, ~2280 Kb/s (0.233 bit/pixel)
Аудио: AC-3, 48.0 KHz, 2.0 ch, 192 Kb/s, CBR | Russian

Список серий

1. Неуловимый Фунтик

Год выпуска: 1986
Продолжительность: 00:10:11
Описание: Фунтик сбежал от своей хозяйки, госпожи Беладонны, потому что не хотел обманывать детей. Хозяйка же думала только о наживе и безжалостно преследовала поросенка, который мог приносить ей неплохой доход...

Дата выхода DVD релиза: 10 ноября 2009, «Флагман-Трейд»

2. Фунтик и сыщики

Год выпуска: 1986
Продолжительность: 00:10:03
Описание: Об отважном и талантливом поросенке Фунтике, сбежавшем от коварной хозяйки универмага «Слезы ребенка» госпожи Белладонны. Фильм второй. О том, как злая и жадная хозяйка универмага «Слеза ребенка» госпожа Белладонна пыталась выкрасть у клоуна Фокуса-Мокуса сбежавшего от нее поросенка Фунтика...

Дата выхода DVD релиза: 12 октября 2010, «Lizard Cinema Trade»

3. Фунтик и старушка с усами

Год выпуска: 1987
Продолжительность: 00:09:57
Описание: Переодетая в мужской костюм Белладонна пытается похитить Фунтика. Ей помогают тупой начальник полиции Фокстрот и суетливые сыщики Добер и Пинчер...

4. Фунтик в цирке

Год выпуска: 1988
Продолжительность: 00:09:13
Описание: Мультфильм о приключениях поросенка Фунтика в цирке...

Дата выхода DVD релиза: 22 апреля 2010, «Флагман-Трейд»

MediaInfo

Код:
Общее
Полное имя                               : Приключения поросенка Фунтика.avi
Формат                                   : AVI
Формат/Информация                        : Audio Video Interleave
Размер файла                             : 699 Мбайт
Продолжительность                        : 39 м.
Общий поток                              : 2480 Кбит/сек
Программа кодирования                    : VirtualDubMod 1.5.10.2 (build 2542/release)
Библиотека кодирования                   : VirtualDubMod build 2542/release
Видео
Идентификатор                            : 0
Формат                                   : MPEG-4 Visual
Профиль формата                          : [email protected]
Параметр BVOP формата                    : Нет
Параметр QPel формата                    : Нет
Параметр GMC формата                     : Без точки перехода
Параметр матрицы формата                 : Default (H.263)
Идентификатор кодека                     : XVID
Идентификатор кодека/Подсказка           : XviD
Продолжительность                        : 39 м.
Битрейт                                  : 2280 Кбит/сек
Ширина                                   : 720 пикселей
Высота                                   : 544 пикселя
Соотношение сторон                       : 4:3
Частота кадров                           : 25,000 кадров/сек
Цветовое пространство                    : YUV
Субдискретизация насыщенности            : 4:2:0
Битовая глубина                          : 8 бит
Тип развёртки                            : Прогрессивная
Метод сжатия                             : С потерями
Бит/(Пиксели*Кадры)                      : 0.233
Размер потока                            : 643 Мбайт (92%)
Библиотека кодирования                   : XviD 1.2.1 (UTC 2008-12-04)
Аудио
Идентификатор                            : 1
Формат                                   : AC-3
Формат/Информация                        : Audio Coding 3
Расширение режима                        : CM (complete main)
Параметр Endianness формата              : Big
Идентификатор кодека                     : 2000
Продолжительность                        : 39 м.
Вид битрейта                             : Постоянный
Битрейт                                  : 192 Кбит/сек
Каналы                                   : 2 канала
Расположение каналов                     : Front: L R
Частота                                  : 48,0 КГц
Битовая глубина                          : 16 бит
Метод сжатия                             : С потерями
Размер потока                            : 54,1 Мбайт (8%)
Выравнивание                             : Разделение по промежуткам
Продолжительность промежутка             : 64  мс. (1,60 видеокадра)
Время предзагрузки промежутка            : 500  мс.
Скриншоты:
         

Дополнительные скриншоты

       
Реставрация от: Viсtоr
Other forum [Profile] [PM]
Similar theme
Forum Topic Author Torrent Replies Last Post
./templates/default/images/folder_dl.gif Фильмы 2001-2010 Невероятная жизнь Уолтера Митти / The Secret Life of Walter Mitty (Бен Стиллер / Ben Stiller, 2013, Приключения, мелодрама, драма, комедия, фэнтези) WEB-DL [H.264/1080p-LQ] Omen
1 | 0

0 | 930

36

2014-03-26 22:37
Omen Latest
./templates/default/images/folder_dl.gif Обучающее видео Учебный центр 1C | Использование прикладного решения 1С Розница 8.2 Редакция 2 (2015) PCRec Varius
1 | 0

0 | 2526

44

2015-07-16 05:16
Varius Latest
./templates/default/images/folder_dl.gif Зарубежное кино Изгой-один: Звёздные войны. Истории / Rogue One: A Star Wars Story (Гарет Эдвардс) [2016 г., фантастика, боевик, приключения, BDRip 1080p] DUB | Чистый звук Theseus
1 | 0

0 | 7779

8

2017-03-22 11:05
Theseus Latest
./templates/default/images/folder_dl.gif Зарубежные сериалы Игра престолов / Game of Thrones / Сезон: 8 / Серии: 1-6 из 6 (Алан Тейлор / Alan Taylor) [2019, фэнтези, боевик, драма, мелодрама, приключения, WEB-DL 1080p] MVO (Amedia / Новамедиа) + Original + Sub (Rus, Eng) ¶ }{@R0N
1 | 0

0 | 1883

0

2019-05-20 12:02
}{@R0N Latest
./templates/default/images/folder_dl.gif Фильмы 2011-2020 Фиксики против кработов (Василий Бедошвили, Олег Ужинов, Иван Пшонкин) [2019 г., приключения, музыка, мультфильм, WEB-DLRip] kilmister777
1 | 0

0 | 679

3

2020-02-05 13:57
kilmister777 Latest
./templates/default/images/folder_dl.gif Новинки (HD|DVD|BD|WEB|TV|SAT|PDTV|-Rip) Смотри как я (Егор Сальников) [2020 г., комедия, приключения, WEB-DLRip] iTunes kilmister777
1 | 0

0 | 1108

0

2020-09-27 14:17
kilmister777 Latest
./templates/default/images/folder_dl.gif Архив Любовь и монстры / Love and Monsters (Майкл Мэтьюз) [2020 г., комедия, фантастика, боевик, приключения, WEB-DL 1080p] MVO (@[email protected]) БАНДИТ
1 | 0

1 | 465

0

2020-10-21 10:53
Dracula Latest
Display posts from previous:    
Reply to topic

The time now is: Today 02:50

All times are GMT + 3 Hours



You cannot post new topics in this forum
You cannot reply to topics in this forum
You cannot edit your posts in this forum
You cannot delete your posts in this forum
You cannot vote in polls in this forum
You cannot attach files in this forum
You cannot download files in this forum