Today is a free download without charge Download

Discovery: Трой / Troy (2014) SATRip (Выпуск 6)

Reply to topic
 
Author
Message

Omen ®

Longevity: 7 years 10 months

Posts: 181087

Торрент-статистика

Post 28-Dec-2014 22:52

[Quote]

Discovery: Трой / Troy - Режиссер / Телекомпания: Discovery
Русское название: Трой
Оригинальное название: Troy
Год выпуска: 2014
Жанр: Документальный, фокусы
Выпущено: США, Zig Zag Production & GroupM Entertainment Limited
Описание:
На первый взгляд, Трой – самый обычный 24-летний парень, но в действительности это один из самых впечатляющих фокусников Великобритании. Трой приглашает вас в свой мир – вы с открытым ртом будете следить за тем, как он использует самые обычные предметы, чтобы удивить и потрясти ничего не подозревающих зрителей. В новой программе Трой выходит на улицы Лондона, чтобы продемонстрировать свои поразительные способности. Фирменный коктейль из микромагии и зрелищных трюков позволяет Трою приводить аудиторию в настоящий восторг!
Трой - один из самых удивительных британских фокусников. Загляните в его мир, чтобы увидеть как он наполняет повседневные предметы и ситуации поражающим воображение волшебством.
Режиссер: Марк Маккуин
Актеры: Йоханнес Трой фон Шайбнер
Перевод: Профессиональный (одноголосый, закадровый)
Продолжительность: 00:44:06
Видеокодек: Xvid
Битрейт видео: ~1290 Кбит/сек
Размер кадра: 720 x 400
Качество видео: SATRip
Аудио (русский): MP3, 2ch., 128 Кбит/сек

MediaInfo:

Формат : AVI
Формат/Информация : Audio Video Interleave
Размер файла : 450 Мбайт
Продолжительность : 44 м.
Общий поток : 1427 Кбит/сек
Программа кодирования : VirtualDubMod 1.5.10.2 (build 2540/release)
Библиотека кодирования : VirtualDubMod build 2540/release
Видео
Идентификатор : 0
Формат : MPEG-4 Visual
Профиль формата : Advanced [email protected]
Параметр BVOP формата : 1
Параметр QPel формата : Нет
Параметр GMC формата : Без точки перехода
Параметр матрицы формата : Default (H.263)
Идентификатор кодека : XVID
Идентификатор кодека/Подсказка : XviD
Продолжительность : 44 м.
Битрейт : 1290 Кбит/сек
Ширина : 720 пикселей
Высота : 400 пикселей
Соотношение сторон : 16:9
Частота кадров : 25,000 кадров/сек
Цветовое пространство : YUV
Субдискретизация насыщенности : 4:2:0
Битовая глубина : 8 бит
Тип развёртки : Прогрессивная
Метод сжатия : С потерями
Бит/(Пиксели*Кадры) : 0.179
Размер потока : 407 Мбайт (90%)
Библиотека кодирования : XviD 1.2.1 (UTC 2008-12-04)
Аудио
Идентификатор : 1
Формат : MPEG Audio
Версия формата : Version 1
Профиль формата : Layer 3
Идентификатор кодека : 55
Идентификатор кодека/Подсказка : MP3
Продолжительность : 44 м.
Вид битрейта : Постоянный
Битрейт : 128 Кбит/сек
Каналы : 2 канала
Частота : 44,1 КГц
Метод сжатия : С потерями
Размер потока : 40,4 Мбайт (9%)
Выравнивание : Разделение по промежуткам
Продолжительность промежутка : 40 мс. (1,00 видеокадр)
Время предзагрузки промежутка : 500 мс.
Библиотека кодирования : LAME3.98r
Настройки программы : -m s -V 4 -q 2 -lowpass 17 -b 128
Скриншоты:        
Other forum [Profile] [PM]
Display posts from previous:    
Reply to topic

The time now is: Today 20:55

All times are GMT + 3 Hours



You cannot post new topics in this forum
You cannot reply to topics in this forum
You cannot edit your posts in this forum
You cannot delete your posts in this forum
You cannot vote in polls in this forum
You cannot attach files in this forum
You cannot download files in this forum