Today is a free download without charge Download

Discovery: Золотая Лихорадка. Аляска. Бурить или умереть [Сезон 2 выпуск 4] / Gold Rush Alaska. Drill or Die (2011) SATRip

Reply to topic
 
Author
Message

Nugeiro ®

Gender:

Longevity: 9 years 6 months

Posts: 1981

Location: Украина, Шостка

Торрент-статистика

Post 15-Feb-2012 17:18

[Quote]

Discovery: Золотая Лихорадка. Аляска. Бурить или умереть [Сезон 2 выпуск 4] / Gold Rush Alaska. Drill or Die- Русское название: Discovery: Золотая Лихорадка. Аляска. Бурить или умереть [Сезон 2 выпуск 4]
Оригинальное название: Gold Rush Alaska. Drill or Die
Режиссер / Телекомпания: Discovery Channel
Год выпуска: 2011
Жанр: Документальный
Описание:
В прошлом году шестеро мужчин отправились в самые дебри Аляски поставив на карту все. В поисках золота они рискуют своими жизнями, взаимоотношениями и долей в четверть миллиона долларов поставленной на кон. После пяти месяцев изнурительных работ они вырыли карьер глубиной 20 метров. И когда до золотоносного слоя остались считанные метры, их настигла зима. Команда Хофмана покинула Аляску добыв всего 400 граммов золота, заработав всего не больше 20 тысяч долларов. Их второй сезон станет решающим...
Продолжительность: 00:43:42
Перевод: Одноголосый закадровый, профессиональный
Видеокодек: Xvid
Битрейт видео: ~Xvid 25.00fps 2530 Kbps
Размер кадра: 720x400
Качество видео: SATRip
Аудиокодек: AC3
Битрейт аудио: Dolby AC3 48000Hz stereo 192kbps

MediaInfo:

Код:
Формат                           : AVI
Формат/Информация                : Audio Video Interleave
Размер файла                     : 854 Мбайт
Продолжительность                : 43 м.
Общий поток                      : 2732 Кбит/сек
Программа кодирования            : VirtualDubMod 1.5.10.2 (build 2540/release)
Библиотека кодирования           : VirtualDubMod build 2540/release
Видео
Идентификатор                    : 0
Формат                           : MPEG-4 Visual
Профиль формата                  : Advanced [email protected]
Параметр BVOP формата            : 2
Параметр QPel формата            : Нет
Параметр GMC формата             : Без точки перехода
Параметр матрицы формата         : Default (H.263)
Режим смешивания                 : Сжатый битовый поток
Идентификатор кодека             : XVID
Идентификатор кодека/Подсказка   : XviD
Продолжительность                : 43 м.
Битрейт                          : 2530 Кбит/сек
Ширина                           : 720 пикселей
Высота                           : 400 пикселей
Соотношение сторон               : 16:9
Частота кадров                   : 25,000 кадров/сек
Цветовое пространство            : YUV
Субдискретизация насыщенности    : 4:2:0
Битовая глубина                  : 8 бит
Тип развёртки                    : Прогрессивная
Метод сжатия                     : С потерями
Бит/(Пиксели*Кадры)              : 0.351
Размер потока                    : 791 Мбайт (93%)
Библиотека кодирования           : XviD 1.2.0.dev47 (UTC 2006-11-01)
Аудио
Идентификатор                    : 1
Формат                           : AC-3
Формат/Информация                : Audio Coding 3
Расширение режима                : CM (complete main)
Идентификатор кодека             : 2000
Продолжительность                : 43 м.
Вид битрейта                     : Постоянный
Битрейт                          : 192 Кбит/сек
Каналы                           : 2 канала
Расположение каналов             : Front: L R
Частота                          : 48,0 КГц
Битовая глубина                  : 16 бит
Метод сжатия                     : С потерями
Размер потока                    : 60,0 Мбайт (7%)
Выравнивание                     : Разделение по промежуткам
Продолжительность промежутка     : 40  мс. (1,00 видеокадр)
Время предзагрузки промежутка    : 500  мс.
Скриншоты:
       

_________________
Other forum [Profile] [PM]
Display posts from previous:    
Reply to topic

The time now is: Today 12:10

All times are GMT + 3 Hours



You cannot post new topics in this forum
You cannot reply to topics in this forum
You cannot edit your posts in this forum
You cannot delete your posts in this forum
You cannot vote in polls in this forum
You cannot attach files in this forum
You cannot download files in this forum