Today is a free download without charge Download

Discovery. Анаконда: Съеденный заживо / Anaconda: Eaten Alive (2014) HDTVRip [H.264/720p]

Reply to topic
 
Author
Message

Omen ®

Longevity: 7 years 10 months

Posts: 181087

Торрент-статистика

Post 23-Dec-2014 13:28

[Quote]

Discovery. Анаконда: Съеденный заживо
Anaconda: Eaten Alive
- Режиссер / Телекомпания: Discovery
Страна: США
Год выпуска: 2014
Жанр: Документальный, природа
Описание: Осторожно, челюсти закрываются! Бесстрашный натуралист Пол Розоли отправляется в змеиную пасть в уникальном эксперименте Discovery Channel! Не опаздывайте к экранам, иначе вы рискуете пропустить беспрецедентную трансляцию прямо из брюха гигантской анаконды в программе «Съеденный заживо». Впервые в истории человек позволит хищнику проглотить себя, при этом оба останутся в живых – благодаря этому эксперименту Пол Розоли надеется получить новые данные о повадках и инстинктах самых больших змей на планете. Ни одно живое создание при съемках программы не пострадало: чтобы остаться целым и невредимым в процессе эксперимента, Пол Розоли надел специальный защитный костюм, а за здоровьем анаконды во время опыта следили сразу трое герпентологов. На месте событий также находились врач, биоинженер и инженер-техник, готовые прийти на помощь, если бы что-то пошло не так. Чтобы стать змеиной трапезой, Полу пришлось бродить по амазонской сельве более двух месяцев – ему никак не удавалось найти змею подходящих размеров. Однажды он встретил чудовище рекордной величины длиной почти 9 метров, но поймать его сразу не удалось. Вторая попытка оказалась удачной, но съемки опять пришлось отложить – анаконда была сыта, ведь этим змеям достаточно наесться досыта раз в месяц. И даже когда все было готово, испытания Пола не закончились – ему пришлось выдержать такое давление, как если бы его переехал автобус, полный пассажиров. Но все препятствия на пути Пола в змеиный желудок оказались позади, и теперь зрители Discover Channel смогут увидеть ход и результат эксперимента!
Перевод: Профессиональный (одноголосый, закадровый)
Субтитры: отсутствуют
Продолжительность: 01:27:08
Видеокодек: MPEG-4 H.264/AVC
Битрейт видео: ~3 456 Кбит/сек
Размер кадра: 1280 x 720
Качество видео: HDTVRip [720p]
Аудио: AC-3, 2ch, 192 Кбит/сек

MediaInfo

Общее
Уникальный идентификатор : 204540060525392909629058910389967481077 (0x99E0FB94CCE3DCD485D78F371A6B68F5)
Полное имя : D:\Релизы\Съеденный.заживо.2014.HDTVRip.720p.mkv
Формат : Matroska
Версия формата : Version 2
Размер файла : 2,23 Гбайт
Продолжительность : 1 ч. 27 м.
Общий поток : 3650 Кбит/сек
Название фильма : Съеденный.заживо.2014.HDTVRip.720p
Дата кодирования : UTC 2014-12-22 20:25:29
Программа кодирования : DVDFab 9.1.6.8
Библиотека кодирования : libebml v0.7.8 + libmatroska v0.8.1
Видео
Идентификатор : 1
Формат : AVC
Формат/Информация : Advanced Video Codec
Профиль формата : [url=mailto:[email protected]][email protected][/url]
Параметр CABAC формата : Да
Параметр ReFrames формата : 2 кадра
Параметр GOP формата : M=3, N=24
Идентификатор кодека : V_MPEG4/ISO/AVC
Продолжительность : 1 ч. 27 м.
Битрейт : 3456 Кбит/сек
Ширина : 1280 пикселей
Высота : 720 пикселей
Соотношение сторон : 16:9
Режим частоты кадров : Постоянный
Частота кадров : 25,000 кадров/сек
Цветовое пространство : YUV
Субдискретизация насыщенности : 4:2:0
Битовая глубина : 8 бит
Тип развёртки : Прогрессивная
Бит/(Пиксели*Кадры) : 0.150
Размер потока : 2,07 Гбайт (93%)
Библиотека кодирования : x264 core 142
Настройки программы : cabac=1 / ref=1 / deblock=1:-1:-1 / analyse=0x3:0 / me=hex / subme=5 / psy=0 / mixed_ref=0 / me_range=16 / chroma_me=1 / trellis=0 / 8x8dct=1 / cqm=0 / deadzone=21,11 / fast_pskip=1 / chroma_qp_offset=0 / threads=3 / lookahead_threads=1 / sliced_threads=0 / nr=0 / decimate=1 / interlaced=0 / bluray_compat=0 / constrained_intra=0 / bframes=2 / b_pyramid=0 / b_adapt=1 / b_bias=0 / direct=1 / weightb=1 / open_gop=0 / weightp=0 / keyint=24 / keyint_min=13 / scenecut=40 / intra_refresh=0 / rc=abr / mbtree=0 / bitrate=3456 / ratetol=1.0 / qcomp=0.60 / qpmin=0 / qpmax=69 / qpstep=4 / ip_ratio=1.40 / pb_ratio=1.30 / aq=1:1.00
Default : Да
Forced : Нет
Основные цвета : BT.709
Характеристики трансфера : BT.709
Коэффициенты матрицы : BT.709
Аудио
Идентификатор : 2
Формат : AC-3
Формат/Информация : Audio Coding 3
Расширение режима : CM (complete main)
Параметр Endianness формата : Big
Идентификатор кодека : A_AC3
Продолжительность : 1 ч. 27 м.
Вид битрейта : Постоянный
Битрейт : 192 Кбит/сек
Каналы : 2 канала
Расположение каналов : Front: L R
Частота : 48,0 КГц
Битовая глубина : 16 бит
Метод сжатия : С потерями
Размер потока : 120 Мбайт (5%)
Язык : English
Default : Да
Forced : Нет
Скриншоты
       

Дополнительные скриншоты

                         
Other forum [Profile] [PM]
Display posts from previous:    
Reply to topic

The time now is: Today 17:08

All times are GMT + 3 Hours



You cannot post new topics in this forum
You cannot reply to topics in this forum
You cannot edit your posts in this forum
You cannot delete your posts in this forum
You cannot vote in polls in this forum
You cannot attach files in this forum
You cannot download files in this forum