Today is a free download without charge Download

Discovery: Почему? Вопросы мироздания. Существует ли создатель / Curiosity. Did God Create The Universe ? (2011) SATRip [сезон 1 серия 1]

Reply to topic
 
Author
Message

Omen ®

Longevity: 7 years 10 months

Posts: 181087

Торрент-статистика

Post 23-Dec-2014 13:24

[Quote]

Discovery: Почему? Вопросы мироздания. Существует ли создатель
Curiosity. Did God Create The Universe ?
- Русское название: Discovery: Почему? Вопросы мироздания. Существует ли создатель
Оригинальное название: Curiosity. Did God Create The Universe ?
Режиссер / Телекомпания: Ben Bowie, Alan Eyres
Год выпуска: 2011
Жанр: Документальный
Описание:
Одних интересует техника, других – география, третьих – астрономия, но есть вопросы, которые волнуют практически каждого человека независимо от возраста, образования и увлечений. Discovery Channel вместе со зрителями будет искать на них ответы в самом масштабном проекте в истории канала, который выходит в эфир в октябре под названием "Почему? Вопросы мироздания". Есть ли разумная жизнь на других планетах? Почему обычные люди могут превращаться в жестоких монстров? Как появилось все сущее? Какова природа привлекательности? Чем больше мы об этом узнаем, тем больше возникает загадок, и поиск истины, который идет тысячелетия, продолжается снова и снова. Но именно поэтому подобные вопросы нас так волнуют и увлекают – ведь чем сложнее задача, тем сильнее хочется ее решить. Присоединяйтесь к бесконечному поиску с программой "Почему? Вопросы мироздания" c октября 2011 по февраль 2012 года по пятницам в 22:00 на Discovery Channel.
Вести зрителей по пути открытий будут известные актеры, ученые, телеведущие, которые не нуждаются в представлении. Физик и космолог Стивен Хокинг приглашает к размышлениям о том, как из ничего возникло нечто и стало нашей Вселенной. Актриса Мишель Родригес, героини которой не раз имели дело с пришельцами в кино, расскажет о том, возможно ли инопланетное вторжение на самом деле и когда его ждать. Адам Сэвидж, звезда программы "Разрушители легенд" отправится в далекий 2967 год и выяснит, помогут ли технологии продлить человеческую жизнь на сотни или даже тысячи лет. Блистательный актер Робин Уильямс приглашает к беседе о том, почему наркотики имеют такую власть над многими, какова их природа и как возникает зависимость. Звезда Голливуда Сэмюэль Л. Джексон задастся вопросом, когда наступит конец света. Актриса Мэгги Джилленхол поднимает весьма интригующую тему – почему мы так любим секс? Наконец, гонщик NASCAR Джеф Гордон организует экскурсию на машине времени в далекое прошлое, когда континенты только начинали формироваться.
"В программе "Почему? Вопросы мироздания" авторы, ведущие и зрители пытаются найти ответ на самые интригующие фундаментальные вопросы, волнующие человечество на протяжении столетий" – говорит Джон Хендрикс, основатель Discovery Channel, которому и принадлежит идея программы. – Каждую неделю вас ждут новые открытия, которые стали доступны благодаря передовым технологиям съемки, важным научным разработкам и ультрасовременной графике"
Продолжительность: 00:42:52
Перевод: Одноголосый закадровый, профессиональный
Видеокодек: Xvid
Битрейт видео: ~Xvid 25.00fps 1800 kbps
Размер кадра: 704x400
Качество видео: SATRip
Аудиокодек: AC3
Битрейт аудио: Dolby AC3 48000Hz stereo 192kbps

MediaInfo:

Формат : AVI
Формат/Информация : Audio Video Interleave
Размер файла : 614 Мбайт
Продолжительность : 42 м.
Общий поток : 2002 Кбит/сек
Программа кодирования : VirtualDubMod 1.5.10.2 (build 2540/release)
Библиотека кодирования : VirtualDubMod build 2540/release
Видео
Идентификатор : 0
Формат : MPEG-4 Visual
Профиль формата : Advanced [email protected]
Параметр BVOP формата : 2
Параметр QPel формата : Нет
Параметр GMC формата : Без точки перехода
Параметр матрицы формата : Default (H.263)
Идентификатор кодека : XVID
Идентификатор кодека/Подсказка : XviD
Продолжительность : 42 м.
Битрейт : 1800 Кбит/сек
Ширина : 704 пикселя
Высота : 400 пикселей
Соотношение сторон : 16:9
Частота кадров : 25,000 кадров/сек
Цветовое пространство : YUV
Субдискретизация насыщенности : 4:2:0
Битовая глубина : 8 бит
Тип развёртки : Прогрессивная
Метод сжатия : С потерями
Бит/(Пиксели*Кадры) : 0.256
Размер потока : 552 Мбайт (90%)
Библиотека кодирования : XviD 1.2.0.dev47 (UTC 2006-11-01)
Аудио
Идентификатор : 1
Формат : AC-3
Формат/Информация : Audio Coding 3
Расширение режима : CM (complete main)
Идентификатор кодека : 2000
Продолжительность : 42 м.
Вид битрейта : Постоянный
Битрейт : 192 Кбит/сек
Каналы : 2 канала
Расположение каналов : Front: L R
Частота : 48,0 КГц
Битовая глубина : 16 бит
Метод сжатия : С потерями
Размер потока : 58,9 Мбайт (10%)
Выравнивание : Разделение по промежуткам
Продолжительность промежутка : 40 мс. (1,00 видеокадр)
Время предзагрузки промежутка : 500 мс.
Скриншоты:        
Other forum [Profile] [PM]
Display posts from previous:    
Reply to topic

The time now is: Today 12:47

All times are GMT + 3 Hours



You cannot post new topics in this forum
You cannot reply to topics in this forum
You cannot edit your posts in this forum
You cannot delete your posts in this forum
You cannot vote in polls in this forum
You cannot attach files in this forum
You cannot download files in this forum