Today is a free download without charge Download

Золушка (Иван Аксенчук) [1979, мультфильм, DVB]

Reply to topic
 
Author
Message

Omen ®

Longevity: 7 years 11 months

Posts: 181087

Торрент-статистика

Post 22-Dec-2014 23:00

[Quote]

Золушка
Жанр: мультфильм
Год выпуска: 1979
Продолжительность: 00:17:02
Режиссёр: Иван Аксенчук
Описание: мультфильм о том, как в одном королевстве жила красивая и очень добрая девушка, которую называли Золушкой. Ее мачеха относилась к ней как к служанке и заставляла выполнять самую грязную и тяжелую работу. Однажды мачеха с двумя своими дочерьми отправилось на бал во дворец, а падчерице приказала остаться дома. И все же Золушка попала во дворец и встретилась с принцем, который влюбился в нее с первого взгляда. Спешно покидая дворец, Золушка потеряла свою крохотную туфельку, которая и должна помочь найти избранницу принца...
Доп. информация: по мотивам сказки Шарля Перро

Трансляция спутникового канала:

Качество видео: DVB
Формат видео: MPEG-PS
Видео: MPEG2 Video, 720x576 (4:3), 25 fps, 3500 kbps
Аудио: MPEG Audiо, 2 сh, 48 kHz, 192 kbps

MediaInfo

General
Complete name : D:\Золушка (1979)_DVB by SLuMeP.mpg
Format : MPEG-PS
File size : 465 MiB
Duration : 17mn 2s
Overall bit rate mode : Variable
Overall bit rate : 3 812 Kbps
Video
ID : 224 (0xE0)
Format : MPEG Video
Format version : Version 2
Format profile : [email protected]
Format settings, BVOP : No
Format settings, Matrix : Custom
Format settings, GOP : M=3, N=12
Duration : 17mn 2s
Bit rate mode : Variable
Bit rate : 3 544 Kbps
Maximum bit rate : 5 000 Kbps
Width : 720 pixels
Height : 576 pixels
Display aspect ratio : 4:3
Frame rate : 25.000 fps
Standard : PAL
Color space : YUV
Chroma subsampling : 4:2:0
Bit depth : 8 bits
Scan type : Interlaced
Scan order : Top Field First
Compression mode : Lossy
Bits/(Pixel*Frame) : 0.342
Time code of first frame : 00:00:00:00
Time code source : Group of pictures header
Stream size : 432 MiB (93%)
Audio
ID : 192 (0xC0)
Format : MPEG Audio
Format version : Version 1
Format profile : Layer 2
Duration : 17mn 2s
Bit rate mode : Constant
Bit rate : 192 Kbps
Channel(s) : 2 channels
Sampling rate : 48.0 KHz
Compression mode : Lossy
Stream size : 23.4 MiB (5%)

Скриншоты


Other forum [Profile] [PM]
Display posts from previous:    
Reply to topic

The time now is: Today 15:32

All times are GMT + 3 Hours



You cannot post new topics in this forum
You cannot reply to topics in this forum
You cannot edit your posts in this forum
You cannot delete your posts in this forum
You cannot vote in polls in this forum
You cannot attach files in this forum
You cannot download files in this forum