Today is a free download without charge Download

Ёлки 2 (Дмитрий Киселёв, Александр Баранов, Александр Котт) [2011 г., мелодрама, комедия, семейный, HDRip]

Reply to topic
 
Author
Message

sassad ®

Gender:

Longevity: 9 years 7 months

Posts: 1214

Location: Галич

Торрент-статистика

Post 14-Feb-2012 15:42

[Quote]

Ёлки 2-- Год выпуска: 2011
Страна: Россия
Жанр: мелодрама, комедия, семейный
Продолжительность: 96 мин. / 01:36
Перевод: Не требуется-Режиссер: Дмитрий Киселёв, Александр Баранов, Александр Котт
Продюссер: Тимур Бекмамбетов, Ива Стромилова, Ольга Харина
Сценарий: Ольга Харина, caxap.1kg, Роман Непомнящий
Премьера в мире: 15 декабря 2011
6.50 (268)

В ролях: Сергей Светлаков, Иван Ургант, Вера Брежнева, Сергей Безруков, Владимир Меньшов, Гоша Куценко, Александр Головин, Виктор Вержбицкий, Алексей Петренко, Петр Федоров-Описание: За этот год много чего произошло, но наступит день, который всё расставит на свои места. Продолжение новогодних историй, которые происходили в жизни героев в фильме «Ёлки».-Качество: HDRip
Формат: AVI
Видео кодек: XviD
Аудио кодек: AC3
Видео: 2 021Kbps, 720x400
Аудио: AC3, 448 kb/s, (6 ch)

--

M.I

Код:
General
Complete name                    : C:\Users\Серёга\Desktop\dwpjsample.avi
Format                           : AVI
Format/Info                      : Audio Video Interleave
File size                        : 27.2 MiB
Duration                         : 1mn 31s
Overall bit rate                 : 2 479 Kbps
Writing application              : VirtualDubMod 1.5.10.3 | www.virtualdub-fr.org || (build 2550/release)
Writing library                  : VirtualDubMod build 2550/release
Video
ID                               : 0
Format                           : MPEG-4 Visual
Format profile                   : Advanced [email protected]
Format settings, BVOP            : 2
Format settings, QPel            : No
Format settings, GMC             : No warppoints
Format settings, Matrix          : Default (MPEG)
Codec ID                         : XVID
Codec ID/Hint                    : XviD
Duration                         : 1mn 31s
Bit rate                         : 2 021 Kbps
Width                            : 720 pixels
Height                           : 400 pixels
Display aspect ratio             : 16:9
Frame rate                       : 23.976 fps
Color space                      : YUV
Chroma subsampling               : 4:2:0
Bit depth                        : 8 bits
Scan type                        : Progressive
Compression mode                 : Lossy
Bits/(Pixel*Frame)               : 0.293
Stream size                      : 22.1 MiB (82%)
Writing library                  : XviD 1.2.1 (UTC 2008-12-04)
Audio
ID                               : 1
Format                           : AC-3
Format/Info                      : Audio Coding 3
Mode extension                   : CM (complete main)
Codec ID                         : 2000
Duration                         : 1mn 31s
Bit rate mode                    : Constant
Bit rate                         : 448 Kbps
Channel(s)                       : 6 channels
Channel positions                : Front: L C R, Side: L R, LFE
Sampling rate                    : 48.0 KHz
Bit depth                        : 16 bits
Compression mode                 : Lossy
Delay relative to video          : 28ms
Stream size                      : 4.91 MiB (18%)
Alignment                        : Split accross interleaves
Interleave, duration             : 42 ms (1.00 video frame)
Interleave, preload duration     : 500 ms

Скриншоты

     
-

_________________
Other forum [Profile] [PM]
Display posts from previous:    
Reply to topic

The time now is: Today 01:51

All times are GMT + 3 Hours



You cannot post new topics in this forum
You cannot reply to topics in this forum
You cannot edit your posts in this forum
You cannot delete your posts in this forum
You cannot vote in polls in this forum
You cannot attach files in this forum
You cannot download files in this forum