Today is a free download without charge Download

Маша и Медведь: Учитель танцев / Серия № 46 (Олег Кузовков, Владислав Байрамгулов)[2014 г., мультфильм, короткометра<wbr>жка, комедия, семейный, WEB-DL 1080p]

Reply to topic
 
Author
Message

Clavik ®

Gender:

Longevity: 7 years

Posts: 2496

Location: Украина

Торрент-статистика

Post 20-Dec-2014 00:18

[Quote]

Маша и Медведь: Учитель танцев
Серия № 46
-- Производство: Россия
Жанр: мультфильм, короткометражка, комедия, семейный
Год выпуска: 2014 г.
Продолжительность: 00:06:58
Режиссер: Олег Кузовков, Владислав Байрамгулов
Персонажи: Алина Кукушкина, Эдуард Назаров, Борис Кутневич
Перевод: Не требуется
Описание:
Мультсериал про девочку Машу, которая никому не дает покоя, и в первую очередь - своему другу Медведю.
Мультик добрый, веселый, а по качеству намного опережает многие отечественные 3D-мультфильмы, да и некоторые западные 3D мультсериалы.
Сериал показывается в "Спокойной ночи, малыши".
Цель сериала «Маша и Медведь» проста и вместе с тем актуальна - попытаться донести до ребенка вечные истины в понятной и занятной форме, представить мир в его многообразии, выявить позитивные стороны в любой ситуации. Тактично объяснить логику действий в различных проблемных ситуациях. В ненавязчивой форме помочь в борьбе с собственными слабостями. Показать человеческие недостатки и высмеять их, не оскорбляя ничьего достоинства.
Формат - комедийный детский сериал.
Сериал рассчитан в первую очередь на детскую аудиторию (от 3 до 9 лет) и поэтому форма изложения материала будет адаптирована для детского восприятия, но не будет чрезмерно упрощенной. Сериал планируется действительно семейным, интересным для всех возрастов, чтобы взрослые могли посмеяться над приключениями Маши и Медведя, вспомнив собственное детство.
Благодаря тому, что каждая серия является законченной историей с достоверным видеорядом, у зрителей возникает ощущение, что персонажи и их мир действительно существует параллельно с нашим (при этом принцип завершенности каждой серии позволяет комбинировать их в любой последовательности, так чтобы зритель мог понимать и воспринимать сериал, даже пропустив его первые эпизоды).-IMDB КиноПоиск
Качество видео: WEB-DLRip (1080p)
Контейнер: MKV
Видео кодек: AVC ([email protected])
Аудио кодек: AAC
Видео: AVC at 3600 Кбит/сек: 1920 x 1080 (1.778) at 25.000 fps
Аудио: AC-3 at 256 Кбит/сек: 2 канала, 44,1 КГц
Cубтитры: отсутствуют

MediaInfo

Код:
Общее
Уникальный идентификатор                 : 210161463620159024664647400736220443434 (0x9E1BA026F18BFBAE9843163DC71EF32A)
Полное имя                               : E:\_Сериалы\_МультСериалы\Маша и Медведь\Masha.i.Medved.s46.2014.WEBDLRip.1080p.mkv
Формат                                   : Matroska
Версия формата                           : Version 2
Размер файла                             : 194 Мбайт
Продолжительность                        : 6 м. 54 с.
Общий поток                              : 3934 Кбит/сек
Дата кодирования                         : UTC 2014-10-09 16:46:00
Программа кодирования                    : mkvmerge v4.9.1 ('Ich will') сборка от Jul 11 2011 23:53:15
Библиотека кодирования                   : libebml v1.2.1 + libmatroska v1.1.1
Видео
Идентификатор                            : 1
Формат                                   : AVC
Формат/Информация                        : Advanced Video Codec
Профиль формата                          : [email protected]
Параметр CABAC формата                   : Да
Параметр ReFrames формата                : 2 кадра
Идентификатор кодека                     : V_MPEG4/ISO/AVC
Продолжительность                        : 6 м. 54 с.
Битрейт                                  : 3600 Кбит/сек
Ширина                                   : 1920 пикселей
Высота                                   : 1080 пикселей
Соотношение сторон                       : 16:9
Режим частоты кадров                     : Постоянный
Частота кадров                           : 25,000 кадров/сек
Цветовое пространство                    : YUV
Субдискретизация насыщенности            : 4:2:0
Битовая глубина                          : 8 бит
Тип развёртки                            : Прогрессивная
Бит/(Пиксели*Кадры)                      : 0.069
Размер потока                            : 178 Мбайт (92%)
Default                                  : Да
Forced                                   : Нет
Аудио
Идентификатор                            : 2
Формат                                   : AC-3
Формат/Информация                        : Audio Coding 3
Расширение режима                        : CM (complete main)
Параметр Endianness формата              : Big
Идентификатор кодека                     : A_AC3
Продолжительность                        : 6 м. 54 с.
Вид битрейта                             : Постоянный
Битрейт                                  : 256 Кбит/сек
Каналы                                   : 2 канала
Расположение каналов                     : Front: L R
Частота                                  : 44,1 КГц
Битовая глубина                          : 16 бит
Метод сжатия                             : С потерями
Размер потока                            : 12,7 Мбайт (7%)
Язык                                     : Russian
Default                                  : Да
Forced                                   : Нет

Скриншот c названием мультфильма

 

Скриншоты

       -        

_________________


Other forum [Profile] [PM]
Display posts from previous:    
Reply to topic

The time now is: Today 13:06

All times are GMT + 3 Hours



You cannot post new topics in this forum
You cannot reply to topics in this forum
You cannot edit your posts in this forum
You cannot delete your posts in this forum
You cannot vote in polls in this forum
You cannot attach files in this forum
You cannot download files in this forum