Today is a free download without charge Download

Транзит / Transit (Антонио Негрет / Antonio Negret) [2012, триллер, драма, криминал, BDRip 1080p]

Reply to topic
 
Author
Message

ALEXXX1983 ®

Gender:

Longevity: 9 years 2 months

Posts: 107

Location: Саратов

Торрент-статистика

Post 13-Feb-2012 16:57

[Quote]

Транзит / Transit
«This Is Not A Perfect Getaway.»
Страна: США
Жанр: триллер, драма, криминал
Год выпуска: 2012
Продолжительность: 01:28:18
Перевод: Профессиональный (двухголосый закадровый)
Cубтитры: русские (только надписи), французские.
Бюджет: $5 000 000
Премьера (мир): 3 января 2012

Режиссер: Антонио Негрет
Сценарий: Майкл Гилвари
Продюсер: Кортни Соломон, Моше Дайамант, Йорам Барзилай
В ролях: Джеймс Кэвизел, Диора Бэрд, Элизабет Рём, Джеймс Фрейн, Стерлинг Найт, Хэролд Перрино, Джэйк Черри, Райан Доноху, Бо Брассо, Робби Джонс-Описание: Чтобы перевезти украденные четыре миллиона долларов через дорожный контрольно-пропускной пункт, виновники кровавого ограбления банка используют простую семью, как невольных курьеров. Теперь преступники хотят получить свои деньги назад и не остановятся ни перед чем, чтобы вернуть их.-Качество видео: BDRip
Формат видео: MKV
Видео: MPEG-4 AVC, 9113 Кбит/сек, 1920x816, 2,35:1, 23,976 кадра/сек, High Profile 4.1
Аудио #1: Russian, DTS, 6 ch, 48,0 КГц, 1510 Кбит/с
Аудио #2: English, DTS, 6 каналов, 48,0 КГц, 6 ch, 1510 Кбит/с
Релиз группа: Кино-Юм

Отчёт MediaInfo

Общее
Уникальный идентификатор : 197385039833544181101412347242966782137 (0x947EF9D333EAD7EEB3A9349836B990B9)
Полное имя : Tranzit.2011.x264.BDRip.1080p..mkv
Формат : Matroska
Версия формата : Version 2
Размер файла : 7,48 Гбайт
Продолжительность : 1 ч. 28 м.
Общий поток : 12,1 Мбит/сек
Название фильма : -::: ed_rez :::-
Дата кодирования : UTC 2012-01-11 15:03:33
Программа кодирования : mkvmerge v5.2.0 ('I can't explain') built on Dec 18 2011 18:12:03
Библиотека кодирования : libebml v1.2.3 + libmatroska v1.3.0
Видео
Идентификатор : 1
Формат : AVC
Формат/Информация : Advanced Video Codec
Профиль формата : [email protected]
Параметр CABAC формата : Да
Параметр ReFrames формата : 5 кадров
Идентификатор кодека : V_MPEG4/ISO/AVC
Продолжительность : 1 ч. 28 м.
Битрейт : 9113 Кбит/сек
Ширина : 1920 пикселей
Высота : 816 пикселей
Соотношение сторон : 2,35:1
Частота кадров : 23,976 кадра/сек
Цветовое пространство : YUV
Субдискретизация насыщенности : 4:2:0
Битовая глубина : 8 бит
Тип развёртки : Прогрессивная
Бит/(Пиксели*Кадры) : 0.243
Размер потока : 5,47 Гбайт (73%)
Заголовок : Транзит / Transit / 2011
Библиотека кодирования : x264 core 119 r2106 07efeb4
Настройки программы : cabac=1 / ref=5 / deblock=1:0:0 / analyse=0x3:0x113 / me=umh / subme=7 / psy=1 / psy_rd=1.00:0.15 / mixed_ref=1 / me_range=16 / chroma_me=1 / trellis=1 / 8x8dct=1 / cqm=0 / deadzone=21,11 / fast_pskip=0 / chroma_qp_offset=-3 / threads=12 / sliced_threads=0 / nr=0 / decimate=1 / interlaced=0 / bluray_compat=0 / constrained_intra=0 / bframes=3 / b_pyramid=2 / b_adapt=1 / b_bias=0 / direct=1 / weightb=1 / open_gop=0 / weightp=2 / keyint=250 / keyint_min=23 / scenecut=40 / intra_refresh=0 / rc_lookahead=40 / rc=2pass / mbtree=1 / bitrate=9113 / ratetol=1.0 / qcomp=0.60 / qpmin=0 / qpmax=69 / qpstep=4 / cplxblur=20.0 / qblur=0.5 / ip_ratio=1.40 / aq=1:1.00
Язык : English
Default : Да
Forced : Нет
Аудио #1
Идентификатор : 2
Формат : DTS
Формат/Информация : Digital Theater Systems
Идентификатор кодека : A_DTS
Продолжительность : 1 ч. 28 м.
Вид битрейта : Постоянный
Битрейт : 1510 Кбит/сек
Каналы : 6 каналов
Расположение каналов : Front: L C R, Side: L R, LFE
Частота : 48,0 КГц
Битовая глубина : 24 бит
Метод сжатия : С потерями
Размер потока : 954 Мбайт (12%)
Заголовок : [DVO] DTS, 6 ch, 1510 Кбит/с
Язык : Russian
Default : Да
Forced : Да
Аудио #2
Идентификатор : 3
Формат : DTS
Формат/Информация : Digital Theater Systems
Идентификатор кодека : A_DTS
Продолжительность : 1 ч. 28 м.
Вид битрейта : Постоянный
Битрейт : 1510 Кбит/сек
Каналы : 6 каналов
Расположение каналов : Front: L C R, Side: L R, LFE
Частота : 48,0 КГц
Битовая глубина : 24 бит
Метод сжатия : С потерями
Размер потока : 954 Мбайт (12%)
Заголовок : [Original] DTS, 6 ch, 1510 Кбит/с
Язык : English
Default : Нет
Forced : Нет
Текст #1
Идентификатор : 4
Формат : UTF-8
Идентификатор кодека : S_TEXT/UTF8
Идентификатор кодека/Информация : UTF-8 Plain Text
Язык : Russian
Default : Да
Forced : Да
Текст #2
Идентификатор : 5
Формат : UTF-8
Идентификатор кодека : S_TEXT/UTF8
Идентификатор кодека/Информация : UTF-8 Plain Text
Язык : French
Default : Нет
Forced : Нет

Скриншоты

     

_________________
Сенатор с DOMSARa


Other forum [Profile] [PM]
Display posts from previous:    
Reply to topic

The time now is: Today 05:31

All times are GMT + 3 Hours



You cannot post new topics in this forum
You cannot reply to topics in this forum
You cannot edit your posts in this forum
You cannot delete your posts in this forum
You cannot vote in polls in this forum
You cannot attach files in this forum
You cannot download files in this forum