Today is a free download without charge Download

Блич (фильм первый) Воспоминания<wbr> ни о ком / Bleach the Movie: Memories of Nobody (Абэ Нориюки) [Movie] [1-1 из 1] [2006 г.] [Приключения,<wbr> Фэнтези] [BDRip] [720p] [RUS/JAP + SUB(RUS)]

Reply to topic
 
Author
Message

Clavik ®

Gender:

Longevity: 8 years 3 months

Posts: 2454

Location: Украина

Торрент-статистика

Post 14-Dec-2014 11:49

[Quote]

Блич (фильм первый) Воспоминания ни о ком / Bleach the Movie: Memories of Nobody- Год выпуска: 2006
Страна: Япония
Жанр: Приключения, Фэнтези
Продолжительность: 87 мин
Тип: Movie-Озвучка: Любительская (одноголосая, закадровая) от А. Килька
Субтитры: RUS от Vallar
Формат субтитров: softsub (SSA/ASS)-Режиссер: Абэ Нориюки
Снято по манге: Блич
Автор оригинала: Кубо Тайто
Студия:
-Описание: Однажды в Каракуре произошел следующий случай. В городе появилась группа созданий, именуемых "пустыми". Рукия и Ичиго отправились в разведку, по пути обнаружив еще одну шинигами Сенну. Впрочем, помимо имени ее меча, Мирокумару, никакой информации о ней нет. О принадлежности к какому-либо отряду она также не упоминает.
В Обществе Душ также неспокойно. В небе над Сейрейтеи образовалась проекция мира живых. Объявлено чрезвычайное положение, проводится срочное расследование данного случая. Для некоторых шинигами это событие послужило знаком приближающегося конца. Если баланс между Обществом Душ и реальным миром пошатнется, оба мира могут пострадать. Тем временем, Хитсугая Тоширо получает специальный приказ...
Ичиго и Сенна обнаруживают группу людей, называющих себя "Темными". Их лидер Ганрю одержим идеей уничтожения мира. По мере того, как сила Темных растет, Ичиго и его друзьям предстоят все более тяжелые и значимые битвы. Также неизвестно, почему Темные преследуют Сенну. На все у героев есть только час, час до конца мира. Битва между шинигами и Темными уже началась. Отсчет пошел...- -Источник: BDRip
Контейнер: MKV
Видео кодек: H.264
Видео: 4200 Kbps, 25.000 fps
Аудио RUS: AC3 48000Hz, 5.1ch, 448 Kbps CBR
Аудио JAP: AC3 48000Hz, 5.1ch, 448 Kbps CBR-

Media Info

Общее
Уникальный идентификатор : 224443161728459080830792144027813548953 (0xA8DA2E3BB55D0A4895985EFDCFFE1399)
Формат : Matroska
Версия формата : Version 2
Размер файла : 3,31 Гбайт
Продолжительность : 1 ч. 32 м.
Общий поток : 5097 Кбит/сек
Дата кодирования : UTC 2011-10-12 06:22:26
Программа кодирования : mkvmerge v4.1.1 ('Bouncin' Back') сборка от Jul 3 2010 22:54:08
Библиотека кодирования : libebml v1.0.0 + libmatroska v1.0.0
Видео
Идентификатор : 1
Формат : AVC
Формат/Информация : Advanced Video Codec
Профиль формата : [email protected]
Параметр CABAC формата : Да
Параметр ReFrames формата : 11 кадров
Идентификатор кодека : V_MPEG4/ISO/AVC
Продолжительность : 1 ч. 32 м.
Битрейт : 4200 Кбит/сек
Ширина : 1280 пикселей
Высота : 720 пикселей
Соотношение сторон : 16:9
Режим частоты кадров : Постоянный
Частота кадров : 25,000 кадров/сек
Цветовое пространство : YUV
Субдискретизация насыщенности : 4:2:0
Битовая глубина : 8 бит
Тип развёртки : Прогрессивная
Бит/(Пиксели*Кадры) : 0.182
Размер потока : 2,66 Гбайт (80%)
Библиотека кодирования : x264 core 116 r2074 2641b9e
Язык : English
Default : Да
Forced : Нет
Аудио #1
Идентификатор : 2
Формат : AC-3
Формат/Информация : Audio Coding 3
Расширение режима : CM (complete main)
Параметр Endianness формата : Big
Режим смешивания : Header stripping
Идентификатор кодека : A_AC3
Продолжительность : 1 ч. 32 м.
Вид битрейта : Постоянный
Битрейт : 448 Кбит/сек
Каналы : 6 каналов
Расположение каналов : Front: L C R, Side: L R, LFE
Частота : 48,0 КГц
Битовая глубина : 16 бит
Метод сжатия : С потерями
Размер потока : 298 Мбайт (9%)
Заголовок : А. Килька
Язык : Russian
Default : Да
Forced : Да
Аудио #2
Идентификатор : 3
Формат : AC-3
Формат/Информация : Audio Coding 3
Расширение режима : CM (complete main)
Параметр Endianness формата : Big
Режим смешивания : Header stripping
Идентификатор кодека : A_AC3
Продолжительность : 1 ч. 32 м.
Вид битрейта : Постоянный
Битрейт : 448 Кбит/сек
Каналы : 6 каналов
Расположение каналов : Front: L C R, Side: L R, LFE
Частота : 48,0 КГц
Битовая глубина : 16 бит
Метод сжатия : С потерями
Размер потока : 298 Мбайт (9%)
Заголовок : Original
Язык : Japanese
Default : Нет
Forced : Нет
Текст
Идентификатор : 4
Формат : ASS
Идентификатор кодека : S_TEXT/ASS
Идентификатор кодека/Информация : Advanced Sub Station Alpha
Метод сжатия : Без потерь
Заголовок : Vallar
Язык : Russian
Default : Нет
Forced : Нет

Скриншоты

           

_________________


Other forum [Profile] [PM]
Display posts from previous:    
Reply to topic

The time now is: Today 22:21

All times are GMT + 3 Hours



You cannot post new topics in this forum
You cannot reply to topics in this forum
You cannot edit your posts in this forum
You cannot delete your posts in this forum
You cannot vote in polls in this forum
You cannot attach files in this forum
You cannot download files in this forum