Today is a free download without charge Download

Звездные войны: Сага / Star Wars: The Complete Saga (Джордж Лукас, Ирвин Кершнер, Ричард Маркуэнд) [1977-2005, фантастика, боевик, приключения, BDRip 1080p] [Антология]

Reply to topic
 
Author
Message

O.S.A. ®

Gender:

Longevity: 5 years 6 months

Posts: 3548

Location: СССР

Торрент-статистика

Post 08-Dec-2014 11:11

[Quote]

Звездные войны: Сага / Star Wars: The Complete Saga [Антология]- Год выпуска: 1999 / 2002 / 2005 / 1977 / 1980 / 1983
Страна: США
Жанр: Фантастика, Боевик, Приключения
Продолжительность: 02:16:11 | 02:22:28 | 02:20:06 | 02:04:45 | 02:07:22 | 02:14:47-Режиссёр: Джордж Лукас, Ирвин Кершнер, Ричард Маркуэнд-Описание:
Звёздные войны (англ. Star Wars) — фантастическая сага, задуманная американским режиссёром Джорджем Лукасом в начале 1970-х годов, и позднее расширенная. Первый фильм назывался «Звездные войны», но после выхода следующего эпизода, у первого фильма появился подзаголовок «Новая надежда». Первый фильм вышел 25 мая 1977, и имел огромное влияние на международную культуру, однако произведение по вселенной — одноимённая книга-новеллизация — появилось ещё в 1976 году, так как продюсеры опасались провала фильма в прокате. Спустя двадцать два года после выхода первого фильма на экраны был выпущен Star Wars: Episode I и Лукас начал режиссировать вторую трилогию. По его признанию, идея фильма возникла под влиянием исследований Джозефа Кэмпбелла по сравнительной мифологии («Герой с тысячью лицами» и др.)
-

Звездные войны: Эпизод 1 - Скрытая угроза / Star Wars: Episode I - The Phantom Menace (1999) BDRip 1080p

Информация о фильме
Название: Звездные войны: Эпизод 1 - Скрытая угроза
Оригинальное название: Star Wars: Episode I - The Phantom Menace
Год выхода: 1999
Жанр: Фантастика, боевик, приключения
Режиссер: Джордж Лукас
В ролях: Лиам Нисон, Юэн МакГрегор, Натали Портман, Джейк Ллойд, Иен МакДермид, Рэй Парк, Теренс Стэмп, Сэмюэл Л. Джексон, Пернилла Аугуст, Хью Куарши
О фильме:
Мирная и процветающая планета Набу. Торговая федерация, не желая платить налоги, вступает в прямой конфликт с королевой Амидалой, правящей на планете, что приводит к войне. На стороне королевы и республики в ней участвуют два рыцаря-джедая: учитель и ученик, Квай-Гон-Джин и Оби-Ван Кеноби…

Страна: США
Студия: Lucasfilm Ltd.
Продолжительность: 02:16:11
Перевод: Дублированный |Blu-ray CEE| + Профессиональный (двухголосый, закадровый) Tycoon-Studio + Профессиональный (многоголосый, закадровый) Киномания + Авторский (одноголосый, закадровый) Андрей Гаврилов + Оригинал
Файл
Кодек: x264
Качество: BDRip 1080p (источник: HDCLUB / Blu-ray Remux / 1080p)
Видео: 1920х820 (2.35:1), 9200 Kbps, 23.976 fps, 0.244 bit/pixel
Аудио #1: 48.0 kHz, AC3 Dolby Digital, 3/2 (L,C,R,l,r) + LFE ch, 640 kbps [Дубляж, Blu-ray CEE]
Аудио #2: 48.0 kHz, AC3 Dolby Digital, 3/2 (L,C,R,l,r) + LFE ch, 640 kbps [Двухголосый, Tycoon-Studio]
Аудио #3: 48.0 kHz, AC3 Dolby Digital, 3/2 (L,C,R,l,r) + LFE ch, 384 kbps [Многоголосый, Киномания]
Аудио #4: 48.0 kHz, AC3 Dolby Digital, 3/2 (L,C,R,l,r) + LFE ch, 640 kbps [Авторский, А. Гаврилов]
Аудио #5: 48.0 kHz, AC3 Dolby Digital, 3/2 (L,C,R,l,r) + LFE ch, 640 kbps [Оригинал, Английский]
Аудио #6: 48.0 kHz, AC3 Dolby Digital, 3/2 (L,C,R,l,r) + LFE ch, 640 kbps [Авторский, Ю. Живов] Отдельно на disk.yandex.ru
Субтитры: Русские [форсированные, полные], английские [форсированные, полные]
Семпл        

x264 / MediaInfo

x264 [info]: frame I:2032 Avg QP:14.22 size:231434
x264 [info]: frame P:64827 Avg QP:16.80 size: 79853
x264 [info]: frame B:129046 Avg QP:18.10 size: 29037
General
Unique ID : 248840810076134982212813817094620918147 (0xBB34FF2B14D8F4AEB6D6121633953183)
Complete name : E:Star.Wars.The.Complete.Saga.1977-2005.x264.BDRip.1080pStar.Wars.Episode.1.1999.x264.BDRip.1080p.mkv
Format : Matroska
Format version : Version 2
File size : 11.6 GiB
Duration : 2h 18mn
Overall bit rate : 12.0 Mbps
Encoded date : UTC 2014-03-26 19:58:09
Writing application : mkvmerge v5.8.0 ('No Sleep / Pillow') built on Sep 2 2012 15:37:04
Writing library : libebml v1.2.3 + libmatroska v1.3.0
Video
ID : 1
Format : AVC
Format/Info : Advanced Video Codec
Format profile : [url=mailto:[email protected]][email protected][/url]
Format settings, CABAC : Yes
Format settings, ReFrames : 5 frames
Codec ID : V_MPEG4/ISO/AVC
Duration : 2h 18mn
Bit rate : 9 200 Kbps
Width : 1 920 pixels
Height : 820 pixels
Display aspect ratio : 2.35:1
Frame rate mode : Constant
Frame rate : 23.976 fps
Color space : YUV
Chroma subsampling : 4:2:0
Bit depth : 8 bits
Scan type : Progressive
Bits/(Pixel*Frame) : 0.244
Stream size : 8.49 GiB (73%)
Writing library : x264 core 142 r2389 956c8d8
Encoding settings : cabac=1 / ref=5 / deblock=1:-3:-3 / analyse=0x3:0x133 / me=tesa / subme=11 / psy=1 / psy_rd=1.00:0.06 / mixed_ref=1 / me_range=32 / chroma_me=1 / trellis=2 / 8x8dct=1 / cqm=0 / deadzone=21,11 / fast_pskip=0 / chroma_qp_offset=-3 / threads=12 / lookahead_threads=1 / sliced_threads=0 / nr=0 / decimate=0 / interlaced=0 / bluray_compat=0 / constrained_intra=0 / bframes=3 / b_pyramid=2 / b_adapt=2 / b_bias=0 / direct=3 / weightb=1 / open_gop=0 / weightp=2 / keyint=240 / keyint_min=23 / scenecut=40 / intra_refresh=0 / rc=2pass / mbtree=0 / bitrate=9200 / ratetol=1.0 / qcomp=0.60 / qpmin=0 / qpmax=69 / qpstep=4 / cplxblur=20.0 / qblur=0.5 / ip_ratio=1.40 / pb_ratio=1.30 / aq=1:1.00
Language : English
Default : Yes
Forced : No
Audio #1
ID : 2
Format : AC-3
Format/Info : Audio Coding 3
Mode extension : CM (complete main)
Format settings, Endianness : Big
Codec ID : A_AC3
Duration : 2h 18mn
Bit rate mode : Constant
Bit rate : 640 Kbps
Channel(s) : 6 channels
Channel positions : Front: L C R, Side: L R, LFE
Sampling rate : 48.0 KHz
Bit depth : 16 bits
Compression mode : Lossy
Stream size : 633 MiB (5%)
Title : Дубляж, Blu-ray CEE
Language : Russian
Default : Yes
Forced : No
Audio #2
ID : 3
Format : AC-3
Format/Info : Audio Coding 3
Mode extension : CM (complete main)
Format settings, Endianness : Big
Codec ID : A_AC3
Duration : 2h 18mn
Bit rate mode : Constant
Bit rate : 640 Kbps
Channel(s) : 6 channels
Channel positions : Front: L C R, Side: L R, LFE
Sampling rate : 48.0 KHz
Bit depth : 16 bits
Compression mode : Lossy
Stream size : 633 MiB (5%)
Title : Двухголосый, Tycoon-Studio
Language : Russian
Default : No
Forced : No
Audio #3
ID : 4
Format : AC-3
Format/Info : Audio Coding 3
Mode extension : CM (complete main)
Format settings, Endianness : Big
Codec ID : A_AC3
Duration : 2h 18mn
Bit rate mode : Constant
Bit rate : 384 Kbps
Channel(s) : 6 channels
Channel positions : Front: L C R, Side: L R, LFE
Sampling rate : 48.0 KHz
Bit depth : 16 bits
Compression mode : Lossy
Stream size : 380 MiB (3%)
Title : Многоголосый, Киномания
Language : Russian
Default : No
Forced : No
Audio #4
ID : 5
Format : AC-3
Format/Info : Audio Coding 3
Mode extension : CM (complete main)
Format settings, Endianness : Big
Codec ID : A_AC3
Duration : 2h 18mn
Bit rate mode : Constant
Bit rate : 640 Kbps
Channel(s) : 6 channels
Channel positions : Front: L C R, Side: L R, LFE
Sampling rate : 48.0 KHz
Bit depth : 16 bits
Compression mode : Lossy
Stream size : 633 MiB (5%)
Title : Авторский, А. Гаврилов
Language : Russian
Default : No
Forced : No
Audio #5
ID : 6
Format : AC-3
Format/Info : Audio Coding 3
Mode extension : CM (complete main)
Format settings, Endianness : Big
Codec ID : A_AC3
Duration : 2h 18mn
Bit rate mode : Constant
Bit rate : 640 Kbps
Channel(s) : 6 channels
Channel positions : Front: L C R, Side: L R, LFE
Sampling rate : 48.0 KHz
Bit depth : 16 bits
Compression mode : Lossy
Stream size : 633 MiB (5%)
Title : Оригинал, Английский
Language : English
Default : No
Forced : No
Text #1
ID : 7
Format : UTF-8
Codec ID : S_TEXT/UTF8
Codec ID/Info : UTF-8 Plain Text
Title : Форсированные
Language : Russian
Default : Yes
Forced : No
Text #2
ID : 8
Format : UTF-8
Codec ID : S_TEXT/UTF8
Codec ID/Info : UTF-8 Plain Text
Title : Полные
Language : Russian
Default : No
Forced : No
Text #3
ID : 9
Format : UTF-8
Codec ID : S_TEXT/UTF8
Codec ID/Info : UTF-8 Plain Text
Title : Форсированные
Language : English
Default : No
Forced : No
Text #4
ID : 10
Format : UTF-8
Codec ID : S_TEXT/UTF8
Codec ID/Info : UTF-8 Plain Text
Title : Полные
Language : English
Default : No
Forced : No
Menu
00:00:00.000 : en:Opening Logos
00:00:21.102 : en:The Phantom Menace
00:01:52.736 : en:Short Negotiations
00:07:55.348 : en:Queen Amidala
00:09:55.970 : en:Landing on Naboo
00:11:18.759 : en:Jar Jar Binks
00:13:24.176 : en:Otoh Gunga
00:14:49.802 : en:Boss Nass
00:17:14.240 : en:The Planet Core
00:20:40.948 : en:Invasion of Theed
00:22:25.299 : en:Surprise Rescue
00:25:12.884 : en:Running the Blockade
00:29:32.809 : en:Tatooine
00:31:41.480 : en:Watto's Shop
00:35:51.731 : en:Fateful Meetings
00:40:48.570 : en:Dinner Conversation
00:44:16.320 : en:Preparing for the Race
00:52:04.579 : en:A Wager with Watto
00:55:03.842 : en:Meet the Podracers
00:58:27.920 : en:"Begin the Race"
01:02:27.702 : en:Lap Two
01:05:33.012 : en:Home Stretch
01:10:06.911 : en:Collecting the Prize
01:11:17.939 : en:Choosing a New Path
01:16:20.951 : en:Darth Maul Attacks
01:18:08.100 : en:The Queen's Worries
01:20:26.363 : en:Arrival on Coruscant
01:24:18.176 : en:The Jedi Council
01:26:44.782 : en:Senate Session
01:29:54.720 : en:Testing Anakin
01:31:02.412 : en:Palpatine's Nomination
01:33:08.541 : en:Anakin's Future
01:37:21.417 : en:The Queen's Gambit
01:39:06.314 : en:A Pleas to the Gungans
01:42:33.729 : en:Battle Plans
01:44:41.564 : en:"with Them Out"
01:46:19.247 : en:Retaking the Palace
01:48:07.729 : en:The Conflict Continues
01:50:24.951 : en:Duel of the Fates
01:56:47.667 : en:Gungan Retreat
01:59:13.060 : en:Qui-Gon vs. Darth Maul
02:00:31.390 : en:Capturing the Viceroy
02:01:21.314 : en:Obi-Wan vs. Darth Maul
02:02:23.377 : en:Control Ship Destroyed
02:03:56.970 : en:A Sith Vanquished
02:05:15.131 : en:Chancellor Palpatine Arrives
02:06:25.993 : en:New Knight, New Apprentice
02:07:23.176 : en:Farewell to a Jedi
02:08:28.992 : en:Naboo Celebration
02:09:53.533 : en:End Credits

Звездные войны: Эпизод 2 – Атака клонов / Star Wars: Episode II - Attack of the Clones (2002) BDRip 1080p

Информация о фильме
Название: Звездные войны: Эпизод 2 – Атака клонов
Оригинальное название: Star Wars: Episode II - Attack of the Clones
Год выхода: 2002
Жанр: Фантастика, боевик, приключения
Режиссер: Джордж Лукас
В ролях: Юэн МакГрегор, Хейден Кристенсен, Натали Портман, Кристофер Ли, Сэмюэл Л. Джексон, Фрэнк Оз, Иен МакДермид, Пернилла Аугуст, Темуэра Моррисон, Дэниэл Логан
О фильме:
Действие разворачивается через 10 лет после событий, описанных в первом эпизоде знаменитой саги. Республика все глубже погружается в пучину противоречий и хаоса. Движение сепаратистов, представленное сотнями планет и могущественным альянсом корпораций, грозит стать новой угрозой для Галактики, с которой не смогут справиться даже джедаи.

Страна: США
Студия: Lucasfilm Ltd.
Продолжительность: 02:22:28
Перевод: Дублированный |Blu-ray CEE| + Профессиональный (двухголосый, закадровый) Tycoon-Studio + Профессиональный (двухголосый, закадровый) П .Гланц и И. Королёва + Авторский (одноголосый, закадровый) Андрей Гаврилов + Авторский (одноголосый, закадровый) Юрий Живов + Оригинал
Файл
Кодек: x264
Качество: BDRip 1080p (источник: HDCLUB / Blu-ray Remux / 1080p)
Видео: 1920х820 (2.35:1), 7963 Kbps, 23.976 fps, 0.211 bit/pixel
Аудио #1: 48.0 kHz, AC3 Dolby Digital, 3/2 (L,C,R,l,r) + LFE ch, 640 kbps [Дубляж, Blu-ray CEE]
Аудио #2: 48.0 kHz, AC3 Dolby Digital, 3/2 (L,C,R,l,r) + LFE ch, 640 kbps [Двухголосый, Tycoon-Studio]
Аудио #3: 48.0 kHz, AC3 Dolby Digital, 3/2 (L,C,R,l,r) + LFE ch, 448 kbps [Двухголосый, П .Гланц и И. Королёва]
Аудио #4: 48.0 kHz, AC3 Dolby Digital, 3/2 (L,C,R,l,r) + LFE ch, 640 kbps [Авторский, А. Гаврилов]
Аудио #5: 48.0 kHz, AC3 Dolby Digital, 3/2 (L,C,R,l,r) + LFE ch, 640 kbps [Авторский, Ю. Живов]
Аудио #6: 48.0 kHz, AC3 Dolby Digital, 3/2 (L,C,R,l,r) + LFE ch, 640 kbps [Оригинал, Английский]
Субтитры: Русские [форсированные, полные], английские [форсированные, полные]
Семпл        

x264 / MediaInfo

x264 [info]: frame I:1946 Avg QP:11.99 size:191746
x264 [info]: frame P:71314 Avg QP:14.34 size: 73127
x264 [info]: frame B:131683 Avg QP:15.40 size: 22163
General
Unique ID : 211835799647080867353943827473746821885 (0x9F5E174AAF5CCBACBF83570D66B302FD)
Complete name : E:Star.Wars.The.Complete.Saga.1977-2005.x264.BDRip.1080pStar.Wars.Episode.2.2002.x264.BDRip.1080p.mkv
Format : Matroska
Format version : Version 2
File size : 11.6 GiB
Duration : 2h 22mn
Overall bit rate : 11.6 Mbps
Encoded date : UTC 2014-03-27 05:01:08
Writing application : mkvmerge v5.8.0 ('No Sleep / Pillow') built on Sep 2 2012 15:37:04
Writing library : libebml v1.2.3 + libmatroska v1.3.0
Video
ID : 1
Format : AVC
Format/Info : Advanced Video Codec
Format profile : [url=mailto:[email protected]][email protected][/url]
Format settings, CABAC : Yes
Format settings, ReFrames : 5 frames
Codec ID : V_MPEG4/ISO/AVC
Duration : 2h 22mn
Bit rate : 7 963 Kbps
Width : 1 920 pixels
Height : 820 pixels
Display aspect ratio : 2.35:1
Frame rate mode : Constant
Frame rate : 23.976 fps
Color space : YUV
Chroma subsampling : 4:2:0
Bit depth : 8 bits
Scan type : Progressive
Bits/(Pixel*Frame) : 0.211
Stream size : 7.70 GiB (67%)
Writing library : x264 core 142 r2389 956c8d8
Encoding settings : cabac=1 / ref=5 / deblock=1:-3:-3 / analyse=0x3:0x133 / me=tesa / subme=11 / psy=1 / psy_rd=1.00:0.12 / mixed_ref=1 / me_range=32 / chroma_me=1 / trellis=2 / 8x8dct=1 / cqm=0 / deadzone=21,11 / fast_pskip=0 / chroma_qp_offset=-3 / threads=12 / lookahead_threads=1 / sliced_threads=0 / nr=0 / decimate=0 / interlaced=0 / bluray_compat=0 / constrained_intra=0 / bframes=3 / b_pyramid=2 / b_adapt=2 / b_bias=0 / direct=3 / weightb=1 / open_gop=0 / weightp=2 / keyint=240 / keyint_min=23 / scenecut=40 / intra_refresh=0 / rc=2pass / mbtree=0 / bitrate=7963 / ratetol=1.0 / qcomp=0.60 / qpmin=0 / qpmax=69 / qpstep=4 / cplxblur=20.0 / qblur=0.5 / ip_ratio=1.40 / pb_ratio=1.30 / aq=1:1.00
Language : English
Default : Yes
Forced : No
Audio #1
ID : 2
Format : AC-3
Format/Info : Audio Coding 3
Mode extension : CM (complete main)
Format settings, Endianness : Big
Codec ID : A_AC3
Duration : 2h 22mn
Bit rate mode : Constant
Bit rate : 640 Kbps
Channel(s) : 6 channels
Channel positions : Front: L C R, Side: L R, LFE
Sampling rate : 48.0 KHz
Bit depth : 16 bits
Compression mode : Lossy
Stream size : 652 MiB (6%)
Title : Дубляж, Blu-ray CEE
Language : Russian
Default : Yes
Forced : No
Audio #2
ID : 3
Format : AC-3
Format/Info : Audio Coding 3
Mode extension : CM (complete main)
Format settings, Endianness : Big
Codec ID : A_AC3
Duration : 2h 22mn
Bit rate mode : Constant
Bit rate : 640 Kbps
Channel(s) : 6 channels
Channel positions : Front: L C R, Side: L R, LFE
Sampling rate : 48.0 KHz
Bit depth : 16 bits
Compression mode : Lossy
Stream size : 652 MiB (6%)
Title : Двухголосый, Tycoon-Studio
Language : Russian
Default : No
Forced : No
Audio #3
ID : 4
Format : AC-3
Format/Info : Audio Coding 3
Mode extension : CM (complete main)
Format settings, Endianness : Big
Codec ID : A_AC3
Duration : 2h 22mn
Bit rate mode : Constant
Bit rate : 448 Kbps
Channel(s) : 6 channels
Channel positions : Front: L C R, Side: L R, LFE
Sampling rate : 48.0 KHz
Bit depth : 16 bits
Compression mode : Lossy
Delay relative to video : 1s 370ms
Stream size : 457 MiB (4%)
Title : Двухголосый, П .Гланц и И. Королёва
Language : Russian
Default : No
Forced : No
Audio #4
ID : 5
Format : AC-3
Format/Info : Audio Coding 3
Mode extension : CM (complete main)
Format settings, Endianness : Big
Codec ID : A_AC3
Duration : 2h 22mn
Bit rate mode : Constant
Bit rate : 640 Kbps
Channel(s) : 6 channels
Channel positions : Front: L C R, Side: L R, LFE
Sampling rate : 48.0 KHz
Bit depth : 16 bits
Compression mode : Lossy
Stream size : 652 MiB (6%)
Title : Авторский, А. Гаврилов
Language : Russian
Default : No
Forced : No
Audio #5
ID : 6
Format : AC-3
Format/Info : Audio Coding 3
Mode extension : CM (complete main)
Format settings, Endianness : Big
Codec ID : A_AC3
Duration : 2h 22mn
Bit rate mode : Constant
Bit rate : 640 Kbps
Channel(s) : 6 channels
Channel positions : Front: L C R, Side: L R, LFE
Sampling rate : 48.0 KHz
Bit depth : 16 bits
Compression mode : Lossy
Stream size : 652 MiB (6%)
Title : Авторский, Ю. Живов
Language : Russian
Default : No
Forced : No
Audio #6
ID : 7
Format : AC-3
Format/Info : Audio Coding 3
Mode extension : CM (complete main)
Format settings, Endianness : Big
Codec ID : A_AC3
Duration : 2h 22mn
Bit rate mode : Constant
Bit rate : 640 Kbps
Channel(s) : 6 channels
Channel positions : Front: L C R, Side: L R, LFE
Sampling rate : 48.0 KHz
Bit depth : 16 bits
Compression mode : Lossy
Stream size : 652 MiB (6%)
Title : Оригинал, Английский
Language : English
Default : No
Forced : No
Text #1
ID : 8
Format : UTF-8
Codec ID : S_TEXT/UTF8
Codec ID/Info : UTF-8 Plain Text
Title : Форсированные
Language : Russian
Default : Yes
Forced : No
Text #2
ID : 9
Format : UTF-8
Codec ID : S_TEXT/UTF8
Codec ID/Info : UTF-8 Plain Text
Title : Полные
Language : Russian
Default : No
Forced : No
Text #3
ID : 10
Format : UTF-8
Codec ID : S_TEXT/UTF8
Codec ID/Info : UTF-8 Plain Text
Title : Форсированные
Language : English
Default : No
Forced : No
Text #4
ID : 11
Format : UTF-8
Codec ID : S_TEXT/UTF8
Codec ID/Info : UTF-8 Plain Text
Title : Полные
Language : English
Default : No
Forced : No
Menu
00:00:00.000 : en:Opening Logos
00:00:23.440 : en:Attack of the Clones
00:01:50.527 : en:Return to Coruscant
00:04:22.095 : en:Chancellors Meeting
00:07:00.001 : en:Old Friends
00:10:28.961 : en:Assassins
00:14:19.898 : en:Speed Chase
00:21:35.289 : en:Into the Club
00:24:48.235 : en:New Assignments
00:29:45.864 : en:Traveling Incognito
00:31:33.471 : en:Dex's Diner
00:33:48.526 : en:Jedi Archives
00:34:50.505 : en:"Encouraged to Love"
00:36:05.121 : en:Yoda and the Younglins
00:38:25.927 : en:Return to Naboo
00:39:25.362 : en:Audience with the Queen
00:40:56.369 : en:Kamino Arrival
00:42:12.780 : en:Meeting Lama Su
00:44:02.014 : en:Stolen Kiss
00:45:50.414 : en:Inspeting the Clones
00:47:50.074 : en:Teasing a Senator
00:50:21.016 : en:Jango's Apartment
00:53:01.427 : en:Forbidden Love
00:56:44.818 : en:Obi-Wan's Report
00:58:56.698 : en:Nightmare
01:00:46.059 : en:Obi-Wan vs. Jango
01:03:41.192 : en:Back to Tatoonie
01:06:24.354 : en:Asteroid Chase
01:11:18.774 : en:Lar's Homestead
01:14:01.353 : en:Anakin's Search
01:15:23.475 : en:Dook's Separatist Plot
01:17:48.872 : en:Tusken Camp
01:21:40.353 : en:Out of Range
01:23:46.895 : en:"You're Not All-Powerful"
01:28:10.158 : en:Enemies Revealed
01:30:52.904 : en:Obi-Wan Captive
01:33:38.487 : en:Emergency Powers
01:35:27.845 : en:Droid Factory
01:42:44.867 : en:Love Pledge
01:45:14.015 : en:The Arena
01:49:53.627 : en:"This Party Is Over"
01:56:22.475 : en:Yoda's Cavalry
01:57:47.600 : en:Clone War
02:00:29.180 : en:War Room
02:04:48.979 : en:Duel with Dooku
02:07:41.944 : en:Master Yoda
02:11:23.667 : en:"Well Done Lord Tyranus"
02:12:54.881 : en:"Begun, the Clone Wars Has"
02:14:49.247 : en:Secret Union
02:15:54.938 : en:End Credits

Звездные войны: Эпизод 3 - Месть Ситхов / Star Wars: Episode III - Revenge of the Sith (2005) BDRip 1080p

Информация о фильме
Название: Звездные войны: Эпизод 3 - Месть Ситхов
Оригинальное название: Star Wars: Episode III - Revenge of the Sith
Год выхода: 2005
Жанр: Фантастика, боевик, приключения
Режиссер: Джордж Лукас
В ролях: Юэн МакГрегор, Натали Портман, Хейден Кристенсен, Иен МакДермид, Сэмюэл Л. Джексон, Джимми Смитс, Фрэнк Оз, Энтони Дэниелс, Кристофер Ли, Киша Касл-Хьюз
О фильме:
Со времен, описанных во втором эпизоде, прошло 3 года. Энакин окончательно встает на темную сторону силы и превращается в Дарта Вейдера. Республика гибнет под ударами крепнущей Империи, Джедаи теряют контроль над галактикой, а Падме готовится к тому, чтобы стать матерью. Все эти события будут разворачиваться на фоне грандиозной битвы, знаменующей финал Клонических войн…

Страна: США
Студия: Lucasfilm Ltd.
Продолжительность: 02:20:06
Перевод: Дублированный |Blu-ray CEE| + Профессиональный (двухголосый, закадровый) Tycoon-Studio + Авторский (одноголосый, закадровый) Андрей Гаврилов + Оригинал
Файл
Кодек: x264
Качество: BDRip 1080p (источник: HDCLUB / Blu-ray Remux / 1080p)
Видео: 1920х820 (2.35:1), 9240 Kbps, 23.976 fps, 0.245 bit/pixel
Аудио #1: 48.0 kHz, AC3 Dolby Digital, 3/2 (L,C,R,l,r) + LFE ch, 640 kbps [Дубляж, Blu-ray CEE]
Аудио #2: 48.0 kHz, AC3 Dolby Digital, 3/2 (L,C,R,l,r) + LFE ch, 640 kbps [Двухголосый, Tycoon-Studio]
Аудио #3: 48.0 kHz, AC3 Dolby Digital, 3/2 (L,C,R,l,r) + LFE ch, 640 kbps [Авторский, А. Гаврилов]
Аудио #4: 48.0 kHz, AC3 Dolby Digital, 3/2 (L,C,R,l,r) + LFE ch, 640 kbps [Оригинал, Английский]
Аудио #5: 48.0 kHz, AC3 Dolby Digital, 3/2 (L,C,R,l,r) + LFE ch, 640 kbps [Авторский, В. Королев] Отдельно на disk.yandex.ru
Субтитры: Русские [форсированные, полные], английские [форсированные, полные]
Семпл        

x264 / MediaInfo

x264 [info]: frame I:1497 Avg QP:16.08 size:239371
x264 [info]: frame P:50208 Avg QP:19.08 size: 86868
x264 [info]: frame B:149833 Avg QP:20.50 size: 33284
General
Unique ID : 173461103484754254100460523735602020681 (0x827F64B1D99325B694E713829F01C149)
Complete name : E:Star.Wars.The.Complete.Saga.1977-2005.x264.BDRip.1080pStar.Wars.Episode.3.2005.x264.BDRip.1080p.mkv
Format : Matroska
Format version : Version 2
File size : 11.5 GiB
Duration : 2h 20mn
Overall bit rate : 11.8 Mbps
Encoded date : UTC 2014-03-27 06:31:49
Writing application : mkvmerge v5.8.0 ('No Sleep / Pillow') built on Sep 2 2012 15:37:04
Writing library : libebml v1.2.3 + libmatroska v1.3.0
Video
ID : 1
Format : AVC
Format/Info : Advanced Video Codec
Format profile : [url=mailto:[email protected]][email protected][/url]
Format settings, CABAC : Yes
Format settings, ReFrames : 5 frames
Codec ID : V_MPEG4/ISO/AVC
Duration : 2h 20mn
Bit rate : 9 240 Kbps
Width : 1 920 pixels
Height : 820 pixels
Display aspect ratio : 2.35:1
Frame rate mode : Constant
Frame rate : 23.976 fps
Color space : YUV
Chroma subsampling : 4:2:0
Bit depth : 8 bits
Scan type : Progressive
Bits/(Pixel*Frame) : 0.245
Stream size : 8.81 GiB (76%)
Writing library : x264 core 142 r2389 956c8d8
Encoding settings : cabac=1 / ref=5 / deblock=1:-3:-3 / analyse=0x3:0x133 / me=tesa / subme=11 / psy=1 / psy_rd=1.00:0.01 / mixed_ref=1 / me_range=32 / chroma_me=1 / trellis=2 / 8x8dct=1 / cqm=0 / deadzone=21,11 / fast_pskip=0 / chroma_qp_offset=-3 / threads=12 / lookahead_threads=2 / sliced_threads=0 / nr=0 / decimate=0 / interlaced=0 / bluray_compat=0 / constrained_intra=0 / bframes=8 / b_pyramid=2 / b_adapt=2 / b_bias=0 / direct=3 / weightb=1 / open_gop=0 / weightp=2 / keyint=240 / keyint_min=23 / scenecut=40 / intra_refresh=0 / rc=2pass / mbtree=0 / bitrate=9240 / ratetol=1.0 / qcomp=0.60 / qpmin=0 / qpmax=69 / qpstep=4 / cplxblur=20.0 / qblur=0.5 / ip_ratio=1.40 / pb_ratio=1.30 / aq=1:1.00
Language : English
Default : Yes
Forced : No
Audio #1
ID : 2
Format : AC-3
Format/Info : Audio Coding 3
Mode extension : CM (complete main)
Format settings, Endianness : Big
Codec ID : A_AC3
Duration : 2h 20mn
Bit rate mode : Constant
Bit rate : 640 Kbps
Channel(s) : 6 channels
Channel positions : Front: L C R, Side: L R, LFE
Sampling rate : 48.0 KHz
Bit depth : 16 bits
Compression mode : Lossy
Stream size : 641 MiB (5%)
Title : Дубляж, Blu-ray CEE
Language : Russian
Default : Yes
Forced : No
Audio #2
ID : 3
Format : AC-3
Format/Info : Audio Coding 3
Mode extension : CM (complete main)
Format settings, Endianness : Big
Codec ID : A_AC3
Duration : 2h 20mn
Bit rate mode : Constant
Bit rate : 640 Kbps
Channel(s) : 6 channels
Channel positions : Front: L C R, Side: L R, LFE
Sampling rate : 48.0 KHz
Bit depth : 16 bits
Compression mode : Lossy
Stream size : 641 MiB (5%)
Title : Двухголосый, Tycoon-Studio
Language : Russian
Default : No
Forced : No
Audio #3
ID : 4
Format : AC-3
Format/Info : Audio Coding 3
Mode extension : CM (complete main)
Format settings, Endianness : Big
Codec ID : A_AC3
Duration : 2h 20mn
Bit rate mode : Constant
Bit rate : 640 Kbps
Channel(s) : 6 channels
Channel positions : Front: L C R, Side: L R, LFE
Sampling rate : 48.0 KHz
Bit depth : 16 bits
Compression mode : Lossy
Stream size : 641 MiB (5%)
Title : Авторский, А. Гаврилов
Language : Russian
Default : No
Forced : No
Audio #4
ID : 5
Format : AC-3
Format/Info : Audio Coding 3
Mode extension : CM (complete main)
Format settings, Endianness : Big
Codec ID : A_AC3
Duration : 2h 20mn
Bit rate mode : Constant
Bit rate : 640 Kbps
Channel(s) : 6 channels
Channel positions : Front: L C R, Side: L R, LFE
Sampling rate : 48.0 KHz
Bit depth : 16 bits
Compression mode : Lossy
Stream size : 641 MiB (5%)
Title : Оригинал, Английский
Language : English
Default : No
Forced : No
Text #1
ID : 6
Format : UTF-8
Codec ID : S_TEXT/UTF8
Codec ID/Info : UTF-8 Plain Text
Title : Форсированные
Language : Russian
Default : Yes
Forced : No
Text #2
ID : 7
Format : UTF-8
Codec ID : S_TEXT/UTF8
Codec ID/Info : UTF-8 Plain Text
Title : Полные
Language : Russian
Default : No
Forced : No
Text #3
ID : 8
Format : UTF-8
Codec ID : S_TEXT/UTF8
Codec ID/Info : UTF-8 Plain Text
Title : Форсированные
Language : English
Default : No
Forced : No
Text #4
ID : 9
Format : UTF-8
Codec ID : S_TEXT/UTF8
Codec ID/Info : UTF-8 Plain Text
Title : Полные
Language : English
Default : No
Forced : No
Menu
00:00:00.000 : en:Opening Logos
00:00:23.522 : en:Revenge of the Sith
00:01:50.067 : en:Battle Over Coruscant
00:08:28.132 : en:General Grievous
00:11:23.348 : en:Rescuing the Chancellor
00:18:33.737 : en:Confronting Grievous
00:23:40.460 : en:Happy Reunions
00:27:37.696 : en:Grievous on Utapau
00:29:12.959 : en:Bad Dreams
00:33:18.913 : en:Counsel with Yoda
00:35:45.434 : en:The Chancellor's Request
00:36:47.996 : en:On the Jedi Council
00:38:21.465 : en:Secret Assignment
00:40:17.456 : en:Not the Chosen One?
00:41:18.601 : en:Seeds of Distrust
00:42:41.056 : en:Tragedy of Darth Plagueis
00:48:01.585 : en:Kashyyyk
00:50:20.516 : en:Brothers' Farewell
00:52:24.931 : en:A Hero Lost
00:53:58.025 : en:Arrival on Utapau
00:56:26.465 : en:Obi-Wan vs. Grievous
01:00:56.277 : en:Jedi War Council
01:01:56.545 : en:Sidious Revealed
01:05:26.046 : en:Utapau Chase
01:07:40.597 : en:Mace Learns the Truth
01:09:06.975 : en:Anakin's Fatal Decision
01:10:52.997 : en:Mace vs. Sidious
01:15:19.222 : en:Rise Lord Vader
01:19:15.250 : en:March on the Jedi Temple
01:20:37.457 : en:Order Sixty-Six
01:24:20.595 : en:Time to Leave
01:27:56.520 : en:"Wait for Me"
01:29:57.390 : en:The Heroes Regroup
01:33:40.405 : en:Birth of the Empire
01:36:39.460 : en:The Terrible Truth
01:38:35.533 : en:Obi-Wan Confronts PadmГ©
01:41:24.368 : en:PadmГ©'s Departure
01:42:57.003 : en:"You're Breaking My Heart"
01:48:18.783 : en:Yoda Visits the Emperor
01:50:59.444 : en:Battle of the Heroes
01:52:44.006 : en:Yoda vs. Sidious
01:54:22.854 : en:Narrow Escapes
01:56:54.923 : en:Immolation
02:02:20.875 : en:The Emperor Arrives
02:03:32.863 : en:Secret Delivery
02:05:19.636 : en:Birth and Rebirth
02:07:37.106 : en:Darth Vader Awakes
02:08:57.061 : en:The Future of the Twins
02:12:04.957 : en:A New Hope
02:13:47.351 : en:End Credits

Звездные войны: Эпизод 4 - Новая надежда / Star Wars: Episode IV - A New Hope (1977) BDRip 1080p

Информация о фильме
Название: Звездные войны: Эпизод 4 - Новая надежда
Оригинальное название: Star Wars: Episode IV - A New Hope
Год выхода: 1977
Жанр: Фантастика, боевик, приключения
Режиссер: Джордж Лукас
В ролях: Марк Хэмилл, Харрисон Форд, Кэрри Фишер, Питер Кушинг, Алек Гиннесс, Энтони Дэниелс, Кенни Бейкер, Питер Мейхью, Дэвид Праус, Фил Браун
О фильме:
Татуин. Планета-пустыня. Уже постаревший рыцарь Джедай Оби Ван Кеноби спасает молодого Люка Скайуокера, когда тот пытается отыскать пропавшего дроида. С этого момента Люк осознает свое истинное назначение: он один из рыцарей Джедай. В то время как гражданская война охватила галактику, а войска повстанцев ведут бои против сил злого Императора, к Люку и Оби Вану присоединяется отчаянный пилот-наемник Хан Соло, и в сопровождении двух дроидов, R2D2 и C-3PO, этот необычный отряд отправляется на поиски предводителя повстанцев — принцессы Леи. Героям предстоит отчаянная схватка с устрашающим Дартом Вейдером — правой рукой Императора и его секретным оружием — «Звездой Смерти».

Страна: США
Студия: 20th Century Fox Film Corporation, Lucasfilm Ltd.
Продолжительность: 02:04:45
Перевод: Дублированный |Blu-ray CEE| + Профессиональный (двухголосый, закадровый) Tycoon-Studio + Авторский (одноголосый, закадровый) Андрей Гаврилов + Оригинал
Файл
Кодек: x264
Качество: BDRip 1080p (источник: HDCLUB / Blu-ray Remux / 1080p)
Видео: 1920х820 (2.35:1), 10699 Kbps, 23.976 fps, 0.283 bit/pixel
Аудио #1: 48.0 kHz, AC3 Dolby Digital, 3/2 (L,C,R,l,r) + LFE ch, 640 kbps [Дубляж, Blu-ray CEE]
Аудио #2: 48.0 kHz, AC3 Dolby Digital, 3/2 (L,C,R,l,r) + LFE ch, 640 kbps [Двухголосый, Tycoon-Studio]
Аудио #3: 48.0 kHz, AC3 Dolby Digital, 3/2 (L,C,R,l,r) + LFE ch, 640 kbps [Авторский, А. Гаврилов]
Аудио #4: 48.0 kHz, AC3 Dolby Digital, 3/2 (L,C,R,l,r) + LFE ch, 640 kbps [Оригинал, Английский]
Аудио #5: 48.0 kHz, AC3 Dolby Digital, 3/2 (L,C,R,l,r) + LFE ch, 448 kbps [Дубляж, Советский] Отдельно на disk.yandex.ru
Аудио #6: 48.0 kHz, AC3 Dolby Digital, 3/2 (L,C,R,l,r) + LFE ch, 448 kbps [Дубляж, ОРТ] Отдельно на disk.yandex.ru
Аудио #7: 48.0 kHz, AC3 Dolby Digital, 3/2 (L,C,R,l,r) + LFE ch, 384 kbps [Многоголосый, Киномания] Отдельно на disk.yandex.ru
Аудио #8: 48.0 kHz, AC3 Dolby Digital, 3/2 (L,C,R,l,r) + LFE ch, 640 kbps [Двухголосый, П .Гланц и И. Королёва] Отдельно на disk.yandex.ru
Аудио #9: 48.0 kHz, AC3 Dolby Digital, 3/2 (L,C,R,l,r) + LFE ch, 640 kbps [Авторский, Ю. Живов] Отдельно на disk.yandex.ru
Аудио #10: 48.0 kHz, AC3 Dolby Digital, 3/2 (L,C,R,l,r) + LFE ch, 448 kbps [Авторский, А .Михалёв [С вставки Живова] Отдельно на disk.yandex.ru
Субтитры: Русские [форсированные, полные], английские [форсированные, полные]
Семпл        

x264 / MediaInfo

x264 [info]: frame I:1563 Avg QP:16.25 size:255444
x264 [info]: frame P:38298 Avg QP:18.89 size:104881
x264 [info]: frame B:139592 Avg QP:20.46 size: 40069
General
Unique ID : 220081249573036777223988588793849446975 (0xA5921B5C2A6C5262964182D4DE10023F)
Complete name : E:Star.Wars.The.Complete.Saga.1977-2005.x264.BDRip.1080pStar.Wars.Episode.4.1977.x264.BDRip.1080p.mkv
Format : Matroska
Format version : Version 2
File size : 11.6 GiB
Duration : 2h 4mn
Overall bit rate : 13.3 Mbps
Encoded date : UTC 2014-03-27 06:57:57
Writing application : mkvmerge v5.8.0 ('No Sleep / Pillow') built on Sep 2 2012 15:37:04
Writing library : libebml v1.2.3 + libmatroska v1.3.0
Video
ID : 1
Format : AVC
Format/Info : Advanced Video Codec
Format profile : [url=mailto:[email protected]][email protected][/url]
Format settings, CABAC : Yes
Format settings, ReFrames : 5 frames
Codec ID : V_MPEG4/ISO/AVC
Duration : 2h 4mn
Bit rate : 10.7 Mbps
Width : 1 920 pixels
Height : 820 pixels
Display aspect ratio : 2.35:1
Frame rate mode : Constant
Frame rate : 23.976 fps
Color space : YUV
Chroma subsampling : 4:2:0
Bit depth : 8 bits
Scan type : Progressive
Bits/(Pixel*Frame) : 0.283
Stream size : 9.09 GiB (79%)
Writing library : x264 core 142 r2389 956c8d8
Encoding settings : cabac=1 / ref=5 / deblock=1:-3:-3 / analyse=0x3:0x133 / me=tesa / subme=11 / psy=1 / psy_rd=1.00:0.00 / mixed_ref=1 / me_range=32 / chroma_me=1 / trellis=2 / 8x8dct=1 / cqm=0 / deadzone=21,11 / fast_pskip=0 / chroma_qp_offset=-2 / threads=12 / lookahead_threads=2 / sliced_threads=0 / nr=0 / decimate=0 / interlaced=0 / bluray_compat=0 / constrained_intra=0 / bframes=8 / b_pyramid=2 / b_adapt=2 / b_bias=0 / direct=3 / weightb=1 / open_gop=0 / weightp=2 / keyint=240 / keyint_min=23 / scenecut=40 / intra_refresh=0 / rc=2pass / mbtree=0 / bitrate=10699 / ratetol=1.0 / qcomp=0.60 / qpmin=0 / qpmax=69 / qpstep=4 / cplxblur=20.0 / qblur=0.5 / ip_ratio=1.40 / pb_ratio=1.30 / aq=1:1.00
Language : English
Default : Yes
Forced : No
Audio #1
ID : 2
Format : AC-3
Format/Info : Audio Coding 3
Mode extension : CM (complete main)
Format settings, Endianness : Big
Codec ID : A_AC3
Duration : 2h 4mn
Bit rate mode : Constant
Bit rate : 640 Kbps
Channel(s) : 6 channels
Channel positions : Front: L C R, Side: L R, LFE
Sampling rate : 48.0 KHz
Bit depth : 16 bits
Compression mode : Lossy
Stream size : 571 MiB (5%)
Title : Дубляж, Blu-ray CEE
Language : Russian
Default : Yes
Forced : No
Audio #2
ID : 3
Format : AC-3
Format/Info : Audio Coding 3
Mode extension : CM (complete main)
Format settings, Endianness : Big
Codec ID : A_AC3
Duration : 2h 4mn
Bit rate mode : Constant
Bit rate : 640 Kbps
Channel(s) : 6 channels
Channel positions : Front: L C R, Side: L R, LFE
Sampling rate : 48.0 KHz
Bit depth : 16 bits
Compression mode : Lossy
Stream size : 571 MiB (5%)
Title : Двухголосый, Tycoon-Studio
Language : Russian
Default : No
Forced : No
Audio #3
ID : 4
Format : AC-3
Format/Info : Audio Coding 3
Mode extension : CM (complete main)
Format settings, Endianness : Big
Codec ID : A_AC3
Duration : 2h 4mn
Bit rate mode : Constant
Bit rate : 640 Kbps
Channel(s) : 6 channels
Channel positions : Front: L C R, Side: L R, LFE
Sampling rate : 48.0 KHz
Bit depth : 16 bits
Compression mode : Lossy
Stream size : 571 MiB (5%)
Title : Авторский, А. Гаврилов
Language : Russian
Default : No
Forced : No
Audio #4
ID : 5
Format : AC-3
Format/Info : Audio Coding 3
Mode extension : CM (complete main)
Format settings, Endianness : Big
Codec ID : A_AC3
Duration : 2h 4mn
Bit rate mode : Constant
Bit rate : 640 Kbps
Channel(s) : 6 channels
Channel positions : Front: L C R, Side: L R, LFE
Sampling rate : 48.0 KHz
Bit depth : 16 bits
Compression mode : Lossy
Stream size : 571 MiB (5%)
Title : Оригинал, Английский
Language : Russian
Default : No
Forced : No
Text #1
ID : 6
Format : UTF-8
Codec ID : S_TEXT/UTF8
Codec ID/Info : UTF-8 Plain Text
Title : Форсированные
Language : Russian
Default : Yes
Forced : No
Text #2
ID : 7
Format : UTF-8
Codec ID : S_TEXT/UTF8
Codec ID/Info : UTF-8 Plain Text
Title : Полные
Language : Russian
Default : No
Forced : No
Text #3
ID : 8
Format : UTF-8
Codec ID : S_TEXT/UTF8
Codec ID/Info : UTF-8 Plain Text
Title : Форсированные
Language : English
Default : No
Forced : No
Text #4
ID : 9
Format : UTF-8
Codec ID : S_TEXT/UTF8
Codec ID/Info : UTF-8 Plain Text
Title : Полные
Language : English
Default : No
Forced : No
Menu
00:00:00.000 : en:Opening Logos
00:00:21.020 : en:A New Hope
00:01:53.403 : en:Imperial Boarding Party
00:04:52.789 : en:Artoo's Mission
00:07:28.280 : en:Vader Confronts the Princess
00:08:54.865 : en:Lost in the Desert
00:11:21.388 : en:Land of Jawas
00:15:40.230 : en:Droids for Sale
00:19:40.176 : en:In the Garage
00:23:33.201 : en:Lars Family Dinner
00:25:32.614 : en:Binary Sunset
00:27:45.496 : en:Attack of the Sand People
00:29:12.709 : en:Meeting Old Ben
00:32:34.076 : en:"Your Father's Lightsaber"
00:34:53.007 : en:Leia's Message
00:36:54.210 : en:The Death Star
00:39:05.634 : en:Torched Homestead
00:41:42.291 : en:Luke's Decision
00:42:31.547 : en:Mos Eisley Spaceport
00:44:51.730 : en:The Cantina
00:47:52.619 : en:Han Solo
00:49:57.994 : en:Cornered by Greedo
00:51:13.695 : en:Death Star Destination
00:52:40.739 : en:Jabba the Hutt
00:54:12.331 : en:The Millennium Falcon
00:56:59.916 : en:Alderaan's Fate
00:59:14.175 : en:Lightsaber Training
01:03:10.827 : en:"That's No Moon..."
01:06:16.472 : en:Secret Compartment
01:08:21.970 : en:Planning the Escape
01:12:32.389 : en:Wookie Prisoner
01:14:12.654 : en:Rescuing the Princess
01:17:13.712 : en:Into the Garbage Chute
01:19:09.327 : en:The Trash Compactor
01:21:29.384 : en:The Walls Close In
01:25:00.220 : en:Deactivating the Tractor Beam
01:27:02.091 : en:Back to the Ship
01:29:56.180 : en:Obi-Wan Vs. Vader
01:33:48.456 : en:Tie Fighter Attack
01:36:39.877 : en:"They Let Us Go"
01:38:06.755 : en:Arrival on Yavin 4
01:39:37.511 : en:Rebel Briefing
01:41:24.993 : en:Han's Departure
01:42:37.399 : en:Luke and Biggs
01:45:02.627 : en:Assault on the Death Star
01:49:42.783 : en:Trench Runs
01:55:18.911 : en:"Use the Force, Luke"
01:57:47.393 : en:A Hero's Welcome
01:58:28.518 : en:Medal Ceremony
02:00:14.497 : en:End Credits

Звездные войны: Эпизод 5 - Империя наносит ответный удар / Star Wars: Episode V - The Empire Strikes Back (1980) BDRip 1080p

Информация о фильме
Название: Звездные войны: Эпизод 5 - Империя наносит ответный удар
Оригинальное название: Star Wars: Episode V - The Empire Strikes Back
Год выхода: 1980
Жанр: Фантастика, боевик, приключения
Режиссер: Ирвин Кершнер
В ролях: Марк Хэмилл, Харрисон Форд, Кэрри Фишер, Билли Ди Уильямс, Энтони Дэниелс, Дэвид Праус, Питер Мейхью, Кенни Бейкер, Фрэнк Оз, Алек Гиннесс
О фильме:
Борьба за Галактику обостряется в пятом эпизоде космической саги. Войска Императора начинают массированную атаку на повстанцев и их союзников.
Хан Соло и принцесса Лейя укрываются в Заоблачном Городе, в котором их и захватывает Дарт Вейдер, в то время как Люк Скайуокер находится на таинственной планете джунглей Дагоба.
Там Мастер — джедай Йода обучает молодого рыцаря навыкам обретения Силы. Люк даже не предполагает, как скоро ему придется воспользоваться знаниями старого Мастера: впереди битва с превосходящими силами Императора и смертельный поединок с Дартом Вейдером.

Страна: США
Студия: Lucasfilm Ltd.
Продолжительность: 02:07:22
Перевод: Дублированный |Blu-ray CEE| + Профессиональный (двухголосый, закадровый) Tycoon-Studio + Авторский (одноголосый, закадровый) Андрей Гаврилов + Оригинал
Файл
Кодек: x264
Качество: BDRip 1080p (источник: HDCLUB / Blu-ray Remux / 1080p)
Видео: 1920х820 (2.35:1), 10421 Kbps, 23.976 fps, 0.276 bit/pixel
Аудио #1: 48.0 kHz, AC3 Dolby Digital, 3/2 (L,C,R,l,r) + LFE ch, 640 kbps [Дубляж, Blu-ray CEE]
Аудио #2: 48.0 kHz, AC3 Dolby Digital, 3/2 (L,C,R,l,r) + LFE ch, 640 kbps [Двухголосый, Tycoon-Studio]
Аудио #3: 48.0 kHz, AC3 Dolby Digital, 3/2 (L,C,R,l,r) + LFE ch, 640 kbps [Авторский, А. Гаврилов]
Аудио #4: 48.0 kHz, AC3 Dolby Digital, 3/2 (L,C,R,l,r) + LFE ch, 640 kbps [Оригинал, Английский]
Аудио #5: 48.0 kHz, AC3 Dolby Digital, 3/2 (L,C,R,l,r) + LFE ch, 448 kbps [Дубляж, ОРТ] Отдельно на disk.yandex.ru
Аудио #6: 48.0 kHz, AC3 Dolby Digital, 3/2 (L,C,R,l,r) + LFE ch, 384 kbps [Многоголосый, Киномания] Отдельно на disk.yandex.ru
Аудио #7: 48.0 kHz, AC3 Dolby Digital, 3/2 (L,C,R,l,r) + LFE ch, 448 kbps [Двухголосый, П .Гланц и И. Королёва] Отдельно на disk.yandex.ru
Аудио #8: 48.0 kHz, AC3 Dolby Digital, 3/2 (L,C,R,l,r) + LFE ch, 640 kbps [Авторский, Ю. Живов] Отдельно на disk.yandex.ru
Аудио #9: 48.0 kHz, MP3 Dolby Digital, 2/0 (L,R) ch, 256 kbps [Авторский, Л. Володарский] Отдельно на disk.yandex.ru
Субтитры: Русские [форсированные, полные], английские
Семпл        

x264 / MediaInfo

x264 [info]: frame I:1421 Avg QP:16.27 size:242425
x264 [info]: frame P:35904 Avg QP:18.72 size:103902
x264 [info]: frame B:145889 Avg QP:20.31 size: 40295
General
Unique ID : 245354917721470886330448715176448518685 (0xB895A367E82FFE32AD61D483DC326A1D)
Complete name : E:Star.Wars.The.Complete.Saga.1977-2005.x264.BDRip.1080pStar.Wars.Episode.5.1980.x264.BDRip.1080p.mkv
Format : Matroska
Format version : Version 2
File size : 11.6 GiB
Duration : 2h 7mn
Overall bit rate : 13.0 Mbps
Encoded date : UTC 2014-03-27 07:50:29
Writing application : mkvmerge v5.8.0 ('No Sleep / Pillow') built on Sep 2 2012 15:37:04
Writing library : libebml v1.2.3 + libmatroska v1.3.0
Video
ID : 1
Format : AVC
Format/Info : Advanced Video Codec
Format profile : [url=mailto:[email protected]][email protected][/url]
Format settings, CABAC : Yes
Format settings, ReFrames : 5 frames
Codec ID : V_MPEG4/ISO/AVC
Duration : 2h 7mn
Bit rate : 10.4 Mbps
Width : 1 920 pixels
Height : 820 pixels
Display aspect ratio : 2.35:1
Frame rate mode : Constant
Frame rate : 23.976 fps
Color space : YUV
Chroma subsampling : 4:2:0
Bit depth : 8 bits
Scan type : Progressive
Bits/(Pixel*Frame) : 0.276
Stream size : 9.04 GiB (78%)
Writing library : x264 core 142 r2389 956c8d8
Encoding settings : cabac=1 / ref=5 / deblock=1:-3:-3 / analyse=0x3:0x133 / me=tesa / subme=11 / psy=1 / psy_rd=1.00:0.01 / mixed_ref=1 / me_range=32 / chroma_me=1 / trellis=2 / 8x8dct=1 / cqm=0 / deadzone=21,11 / fast_pskip=0 / chroma_qp_offset=-3 / threads=12 / lookahead_threads=2 / sliced_threads=0 / nr=0 / decimate=0 / interlaced=0 / bluray_compat=0 / constrained_intra=0 / bframes=8 / b_pyramid=2 / b_adapt=2 / b_bias=0 / direct=3 / weightb=1 / open_gop=0 / weightp=2 / keyint=240 / keyint_min=23 / scenecut=40 / intra_refresh=0 / rc=2pass / mbtree=0 / bitrate=10421 / ratetol=1.0 / qcomp=0.60 / qpmin=0 / qpmax=69 / qpstep=4 / cplxblur=20.0 / qblur=0.5 / ip_ratio=1.40 / pb_ratio=1.30 / aq=1:1.00
Language : English
Default : Yes
Forced : No
Audio #1
ID : 2
Format : AC-3
Format/Info : Audio Coding 3
Mode extension : CM (complete main)
Format settings, Endianness : Big
Codec ID : A_AC3
Duration : 2h 7mn
Bit rate mode : Constant
Bit rate : 640 Kbps
Channel(s) : 6 channels
Channel positions : Front: L C R, Side: L R, LFE
Sampling rate : 48.0 KHz
Bit depth : 16 bits
Compression mode : Lossy
Stream size : 583 MiB (5%)
Title : Дубляж, Blu-ray CEE
Language : Russian
Default : Yes
Forced : No
Audio #2
ID : 3
Format : AC-3
Format/Info : Audio Coding 3
Mode extension : CM (complete main)
Format settings, Endianness : Big
Codec ID : A_AC3
Duration : 2h 7mn
Bit rate mode : Constant
Bit rate : 640 Kbps
Channel(s) : 6 channels
Channel positions : Front: L C R, Side: L R, LFE
Sampling rate : 48.0 KHz
Bit depth : 16 bits
Compression mode : Lossy
Stream size : 583 MiB (5%)
Title : Двухголосый, Tycoon-Studio
Language : Russian
Default : No
Forced : No
Audio #3
ID : 4
Format : AC-3
Format/Info : Audio Coding 3
Mode extension : CM (complete main)
Format settings, Endianness : Big
Codec ID : A_AC3
Duration : 2h 7mn
Bit rate mode : Constant
Bit rate : 640 Kbps
Channel(s) : 6 channels
Channel positions : Front: L C R, Side: L R, LFE
Sampling rate : 48.0 KHz
Bit depth : 16 bits
Compression mode : Lossy
Stream size : 583 MiB (5%)
Title : Авторский, А. Гаврилов
Language : Russian
Default : No
Forced : No
Audio #4
ID : 5
Format : AC-3
Format/Info : Audio Coding 3
Mode extension : CM (complete main)
Format settings, Endianness : Big
Codec ID : A_AC3
Duration : 2h 7mn
Bit rate mode : Constant
Bit rate : 640 Kbps
Channel(s) : 6 channels
Channel positions : Front: L C R, Side: L R, LFE
Sampling rate : 48.0 KHz
Bit depth : 16 bits
Compression mode : Lossy
Stream size : 583 MiB (5%)
Title : Оригинал, Английский
Language : English
Default : No
Forced : No
Text #1
ID : 6
Format : UTF-8
Codec ID : S_TEXT/UTF8
Codec ID/Info : UTF-8 Plain Text
Title : Форсированные
Language : Russian
Default : Yes
Forced : No
Text #2
ID : 7
Format : UTF-8
Codec ID : S_TEXT/UTF8
Codec ID/Info : UTF-8 Plain Text
Title : Полные
Language : Russian
Default : No
Forced : No
Text #3
ID : 8
Format : UTF-8
Codec ID : S_TEXT/UTF8
Codec ID/Info : UTF-8 Plain Text
Language : English
Default : No
Forced : No
Menu
00:00:00.000 : en:Opening Logos
00:00:21.102 : en:The Empire Strikes Back
00:01:54.864 : en:Ice Planet Hoth
00:04:15.836 : en:The Rebel Base
00:08:19.247 : en:Escape From The Wampa
00:10:15.946 : en:Closing The Doors
00:12:57.734 : en:Obi-Wan's Instructions
00:15:13.537 : en:Search Party
00:16:29.696 : en:Luke's Recovery
00:18:19.971 : en:Imperial Probe Droid
00:19:45.392 : en:The Imperial Fleet
00:21:22.698 : en:Preparing For Battle
00:23:57.727 : en:First Transport Away
00:25:49.422 : en:Battle In The Snow
00:29:29.347 : en:The Tide Turns
00:31:29.219 : en:Rebels In Retreat
00:33:37.681 : en:Escape Aboard The Falcon
00:35:55.152 : en:Leaving For Dagobah
00:36:51.250 : en:The Empire In Pursuit
00:38:33.561 : en:Asteroid Field
00:40:36.724 : en:Crash Landing On Dagobah
00:44:20.074 : en:Hunting The Falcon
00:46:08.389 : en:"Found Someone, You Have"
00:50:13.385 : en:Interrupted Kiss
00:52:16.632 : en:The Emperor's Message
00:54:20.255 : en:Yoda's Hut
00:57:40.289 : en:"This Is No Cave"
01:00:57.945 : en:Jedi Training
01:03:42.777 : en:Failure At The Cave
01:05:46.108 : en:Bounty Hunters
01:08:12.170 : en:There Is No Try
01:13:24.233 : en:Out With The Garbage
01:16:39.886 : en:Seeing The Future
01:18:24.113 : en:City In The Clouds
01:19:45.863 : en:Meeting Lando
01:22:55.929 : en:Leaving Dagobah
01:25:38.550 : en:Leia's Concerns
01:27:51.265 : en:Imperial Surprise
01:30:28.671 : en:The Deal Gets Worse
01:34:39.796 : en:Carbon-Freeze
01:38:28.902 : en:Luke Enters The Trap
01:40:26.145 : en:Confronting The Dark Lord
01:41:46.099 : en:Lando's Second Surprise
01:43:51.430 : en:Lightsaber Duel
01:47:02.541 : en:Escape From Cloud City
01:49:21.470 : en:Vader's Revelation
01:53:41.689 : en:Falcon To The Rescue
01:56:14.841 : en:The Empire Closes In
01:59:46.595 : en:The Rebel Fleet
02:01:58.225 : en:End Credits

Звездные войны: Эпизод 6 - Возвращение Джедая / Star Wars: Episode VI - Return of the Jedi (1983) BDRip 1080p

Информация о фильме
Название: Звездные войны: Эпизод 6 - Возвращение Джедая
Оригинальное название: Star Wars: Episode VI - Return of the Jedi
Год выхода: 1983
Жанр: Фантастика, боевик, приключения
Режиссер: Ричард Маркуэнд
В ролях:
О фильме:
В заключительном шестом эпизоде «Звездных войн» Дарт Вейдер создает вторую «Звезду Смерти». Он объединяет все силы зла, чтобы с помощью этого смертоносного оружия нанести последний сокрушительный удар по повстанцам и их союзникам.
Люк Скайуокер вместе с принцессой Лейей и верными дроидами R2D2 и C-3PO отправляется спасать своего друга Хана Соло, который попал в плен к отвратительному Джаббе Хатту — могущественному повелителю преступников.
Повстанцы высаживаются на планету Эндор, чтобы оттуда вместе с Люком и его отрядом предпринять последнюю атаку на Имперский флот, атаку, от которой зависит судьба Галактики. В этом эпизоде Люк Скайуокер и Дарт Вейдер встречаются в последний раз… ибо из поединка между отцом и сыном живым выйдет только один…

Страна: США
Студия: Lucasfilm Ltd.
Продолжительность: 02:14:47
Перевод: Дублированный |Blu-ray CEE| + Профессиональный (двухголосый, закадровый) Tycoon-Studio + Авторский (одноголосый, закадровый) Андрей Гаврилов + Оригинал
Файл
Кодек: x264
Качество: BDRip 1080p (источник: HDCLUB / Blu-ray Remux / 1080p)
Видео: 1920х820 (2.35:1), 9711 Kbps, 23.976 fps, 0.257 bit/pixel
Аудио #1: 48.0 kHz, AC3 Dolby Digital, 3/2 (L,C,R,l,r) + LFE ch, 640 kbps [Дубляж, Blu-ray CEE]
Аудио #2: 48.0 kHz, AC3 Dolby Digital, 3/2 (L,C,R,l,r) + LFE ch, 640 kbps [Двухголосый, Tycoon-Studio]
Аудио #3: 48.0 kHz, AC3 Dolby Digital, 3/2 (L,C,R,l,r) + LFE ch, 640 kbps [Авторский, А. Гаврилов]
Аудио #4: 48.0 kHz, AC3 Dolby Digital, 3/2 (L,C,R,l,r) + LFE ch, 640 kbps [Оригинал, Английский]
Аудио #5: 48.0 kHz, AC3 Dolby Digital, 3/2 (L,C,R,l,r) + LFE ch, 448 kbps [Дубляж, ОРТ] Отдельно на disk.yandex.ru
Аудио #6: 48.0 kHz, AC3 Dolby Digital, 3/2 (L,C,R,l,r) + LFE ch, 384 kbps [Многоголосый, Киномания] Отдельно на disk.yandex.ru
Аудио #7: 48.0 kHz, AC3 Dolby Digital, 3/2 (L,C,R,l,r) + LFE ch, 448 kbps [Двухголосый, П .Гланц и И. Королёва] Отдельно на disk.yandex.ru
Аудио #8: 48.0 kHz, AC3 Dolby Digital, 3/2 (L,C,R,l,r) + LFE ch, 640 kbps [Авторский, Ю. Живов] Отдельно на disk.yandex.ru
Субтитры: Русские [форсированные, полные], английские [форсированные, полные]
Семпл        

x264 / MediaInfo

x264 [info]: frame I:1401 Avg QP:17.98 size:265988
x264 [info]: frame P:40459 Avg QP:20.56 size:100492
x264 [info]: frame B:152042 Avg QP:21.93 size: 35371
General
Unique ID : 225211591941936358670439092197329756787 (0xA96E2CC491BD6DBDB289DFB988F46273)
Complete name : E:Star.Wars.The.Complete.Saga.1977-2005.x264.BDRip.1080pStar.Wars.Episode.6.1983.x264.BDRip.1080p.mkv
Format : Matroska
Format version : Version 2
File size : 11.6 GiB
Duration : 2h 14mn
Overall bit rate : 12.3 Mbps
Encoded date : UTC 2014-03-27 09:08:07
Writing application : mkvmerge v5.8.0 ('No Sleep / Pillow') built on Sep 2 2012 15:37:04
Writing library : libebml v1.2.3 + libmatroska v1.3.0
Video
ID : 1
Format : AVC
Format/Info : Advanced Video Codec
Format profile : [url=mailto:[email protected]][email protected][/url]
Format settings, CABAC : Yes
Format settings, ReFrames : 5 frames
Codec ID : V_MPEG4/ISO/AVC
Duration : 2h 14mn
Bit rate : 9 711 Kbps
Width : 1 920 pixels
Height : 820 pixels
Display aspect ratio : 2.35:1
Frame rate mode : Constant
Frame rate : 23.976 fps
Color space : YUV
Chroma subsampling : 4:2:0
Bit depth : 8 bits
Scan type : Progressive
Bits/(Pixel*Frame) : 0.257
Stream size : 8.92 GiB (77%)
Writing library : x264 core 142 r2389 956c8d8
Encoding settings : cabac=1 / ref=5 / deblock=1:-3:-3 / analyse=0x3:0x133 / me=tesa / subme=11 / psy=1 / psy_rd=1.00:0.00 / mixed_ref=1 / me_range=32 / chroma_me=1 / trellis=2 / 8x8dct=1 / cqm=0 / deadzone=21,11 / fast_pskip=0 / chroma_qp_offset=-2 / threads=12 / lookahead_threads=3 / sliced_threads=0 / nr=0 / decimate=0 / interlaced=0 / bluray_compat=0 / constrained_intra=0 / bframes=10 / b_pyramid=2 / b_adapt=2 / b_bias=0 / direct=3 / weightb=1 / open_gop=0 / weightp=2 / keyint=240 / keyint_min=23 / scenecut=40 / intra_refresh=0 / rc=2pass / mbtree=0 / bitrate=9711 / ratetol=1.0 / qcomp=0.60 / qpmin=0 / qpmax=69 / qpstep=4 / cplxblur=20.0 / qblur=0.5 / ip_ratio=1.40 / pb_ratio=1.30 / aq=1:1.00
Language : English
Default : Yes
Forced : No
Audio #1
ID : 2
Format : AC-3
Format/Info : Audio Coding 3
Mode extension : CM (complete main)
Format settings, Endianness : Big
Codec ID : A_AC3
Duration : 2h 14mn
Bit rate mode : Constant
Bit rate : 640 Kbps
Channel(s) : 6 channels
Channel positions : Front: L C R, Side: L R, LFE
Sampling rate : 48.0 KHz
Bit depth : 16 bits
Compression mode : Lossy
Stream size : 617 MiB (5%)
Title : Дубляж, Blu-ray CEE
Language : Russian
Default : Yes
Forced : No
Audio #2
ID : 3
Format : AC-3
Format/Info : Audio Coding 3
Mode extension : CM (complete main)
Format settings, Endianness : Big
Codec ID : A_AC3
Duration : 2h 14mn
Bit rate mode : Constant
Bit rate : 640 Kbps
Channel(s) : 6 channels
Channel positions : Front: L C R, Side: L R, LFE
Sampling rate : 48.0 KHz
Bit depth : 16 bits
Compression mode : Lossy
Stream size : 617 MiB (5%)
Title : Двухголосый, Tycoon-Studio
Language : Russian
Default : No
Forced : No
Audio #3
ID : 4
Format : AC-3
Format/Info : Audio Coding 3
Mode extension : CM (complete main)
Format settings, Endianness : Big
Codec ID : A_AC3
Duration : 2h 14mn
Bit rate mode : Constant
Bit rate : 640 Kbps
Channel(s) : 6 channels
Channel positions : Front: L C R, Side: L R, LFE
Sampling rate : 48.0 KHz
Bit depth : 16 bits
Compression mode : Lossy
Stream size : 617 MiB (5%)
Title : Авторский, А. Гаврилов
Language : Russian
Default : No
Forced : No
Audio #4
ID : 5
Format : AC-3
Format/Info : Audio Coding 3
Mode extension : CM (complete main)
Format settings, Endianness : Big
Codec ID : A_AC3
Duration : 2h 14mn
Bit rate mode : Constant
Bit rate : 640 Kbps
Channel(s) : 6 channels
Channel positions : Front: L C R, Side: L R, LFE
Sampling rate : 48.0 KHz
Bit depth : 16 bits
Compression mode : Lossy
Stream size : 617 MiB (5%)
Title : Оригинал, Английский
Language : English
Default : No
Forced : No
Text #1
ID : 6
Format : UTF-8
Codec ID : S_TEXT/UTF8
Codec ID/Info : UTF-8 Plain Text
Title : Форсированные
Language : Russian
Default : Yes
Forced : No
Text #2
ID : 7
Format : UTF-8
Codec ID : S_TEXT/UTF8
Codec ID/Info : UTF-8 Plain Text
Title : Полные
Language : Russian
Default : No
Forced : No
Text #3
ID : 8
Format : UTF-8
Codec ID : S_TEXT/UTF8
Codec ID/Info : UTF-8 Plain Text
Title : Форсированные
Language : English
Default : No
Forced : No
Text #4
ID : 9
Format : UTF-8
Codec ID : S_TEXT/UTF8
Codec ID/Info : UTF-8 Plain Text
Title : Полные
Language : English
Default : No
Forced : No
Menu
00:00:00.000 : en:Opening Logos
00:00:21.187 : en:The Phantom Menace
00:01:55.114 : en:Short Negotiations
00:04:58.462 : en:Queen Amidala
00:08:10.905 : en:Landing on Naboo
00:12:21.906 : en:Jar Jar Binks
00:14:22.027 : en:Otoh Gunga
00:17:36.011 : en:Boss Nass
00:22:10.037 : en:The Planet Core
00:25:08.338 : en:Invasion of Theed
00:29:37.356 : en:Surprise Rescue
00:31:29.010 : en:Running the Blockade
00:37:44.469 : en:Tatooine
00:39:32.244 : en:Watto's Shop
00:45:17.422 : en:Fateful Meetings
00:48:23.400 : en:Dinner Conversation
00:51:36.009 : en:Preparing for the Race
00:53:32.666 : en:A Wager with Watto
00:54:25.094 : en:Meet the Podracers
00:56:55.244 : en:"Begin the Race"
00:58:43.811 : en:Lap Two
01:02:41.715 : en:Home Stretch
01:06:19.266 : en:Collecting the Prize
01:07:47.479 : en:Choosing a New Path
01:12:01.108 : en:Darth Maul Attacks
01:15:52.671 : en:The Queen's Worries
01:18:14.814 : en:Arrival on Coruscant
01:22:30.403 : en:The Jedi Council
01:26:06.868 : en:Senate Session
01:26:52.081 : en:Testing Anakin
01:27:50.890 : en:Palpatine's Nomination
01:30:04.524 : en:Anakin's Future
01:33:19.135 : en:The Queen's Gambit
01:36:41.420 : en:A Pleas to the Gungans
01:40:25.185 : en:Battle Plans
01:42:23.176 : en:"with Them Out"
01:44:27.801 : en:Retaking the Palace
01:45:26.944 : en:The Conflict Continues
01:48:42.430 : en:Duel of the Fates
01:50:40.634 : en:Gungan Retreat
01:51:37.104 : en:Qui-Gon vs. Darth Maul
01:54:37.118 : en:Capturing the Viceroy
01:55:07.859 : en:Obi-Wan vs. Darth Maul
01:55:57.492 : en:Control Ship Destroyed
01:57:40.176 : en:A Sith Vanquished
01:59:34.167 : en:Chancellor Palpatine Arrives
02:01:58.853 : en:New Knight, New Apprentice
02:04:50.564 : en:Farewell to a Jedi
02:05:27.435 : en:Naboo Celebration
02:07:56.042 : en:End Credits

Дополнительно:

За рипы спасибо K.A.F.
-Скриншоты:
         
-

_________________

===============================
IGNOSCITO SAEPE ALTERI, NUNQUAM TIBI
Other forum [Profile] [PM]
Similar theme
Forum Topic Author Torrent Replies Last Post
./templates/default/images/folder_dl.gif Фантастика, фэнтези, ужасы, мистика Книжная серия «Platinum. Звезды фантастического детектива» [2015, FB2/RTF, RUS] Omen
1 | 0

0 | 1150

3

2015-12-20 06:00
Omen Latest
./templates/default/images/folder_dl.gif Фантастика, фэнтези, ужасы, мистика Эдмонд Мур Гамильтон | Звездные короли [сборник] (2016) [FB2] Omen
1 | 0

0 | 630

5

2016-03-10 00:27
Omen Latest
./templates/default/images/folder_dl.gif Новинки (CamRip|TS) Звёздные войны: Последние джедаи / Star Wars: The Last Jedi (Райан Джонсон) [2017, фантастика, фэнтези, боевик, приключения, TS (Proper)] DUB Theseus
1 | 0

0 | 3196

5

2017-12-18 18:38
Theseus Latest
./templates/default/images/folder_dl.gif Новинки (BD|HDTV|DVD) Звёздные войны: Последние джедаи / Star Wars: The Last Jedi (Райан Джонсон) [2017, фантастика, фэнтези, боевик, приключения, UHD BDRemux 2160p] DUB | iTunes Theseus
1 | 0

0 | 1255

7

2018-03-15 14:03
Theseus Latest
./templates/default/images/folder_dl.gif Фантастика, фэнтези, ужасы, мистика Макс Глебов | Звезд Не Хватит На Всех (Новая Версия) (Троицкий Олег) (2019) [MP3] }{@R0N
1 | 0

0 | 375

0

2019-04-19 22:05
}{@R0N Latest
./templates/default/images/folder_dl.gif Фантастика, фэнтези, ужасы, мистика Андрей Кардашов | Звездные корсары (2019) [MP3] }{@R0N
1 | 0

0 | 79

0

2019-04-19 22:18
}{@R0N Latest
Display posts from previous:    
Reply to topic

The time now is: Today 14:56

All times are GMT + 3 Hours



You cannot post new topics in this forum
You cannot reply to topics in this forum
You cannot edit your posts in this forum
You cannot delete your posts in this forum
You cannot vote in polls in this forum
You cannot attach files in this forum
You cannot download files in this forum