Today is a free download without charge Download

Уловка .44 / Catch .44 (Аарон Харви / Aaron Harvey) [2011, США, триллер, драма, криминал, DVD9] R5 «CP-Digital»

Reply to topic
 
Author
Message

voovaz ®

Gender:

Longevity: 9 years 5 months

Posts: 87

Торрент-статистика

Post 09-Feb-2012 21:54

[Quote]

-Уловка .44 / Catch .44-«If you are going down, take everyone with you.» -Страна: США
Студия: Annapurna Productions, Benaroya Pictures, Emmett/Furla Films, Sakonnet Capital Partners, Waterfall Media
Жанр: триллер, драма, криминал
Год выпуска: 2011
Мировая премьера: 9 декабря 2011
Дата выхода DVD: 9 февраля 2012, «CP-Digital»
Продолжительность: 01:29:45
Перевод: Профессиональный (многоголосый закадровый) [Лицензия]
Cубтитры: русские
Оригинальная аудиодорожка: английский-Режиссер: Аарон Харви / Aaron Harvey-В ролях: Форест Уитакер, Брюс Уиллис, Малин Акерман, Никки Рид, Дебора Энн Уолл, Брэд Дуриф, Ши Уигхэм, Майкл Розенбаум, Рейла Афродит, Эрик Браун-Описание: Тес, Доун и Кара — три девушки, зарабатывающие на кусок хлеба в Вегасе. Однажды их жизни круто меняют свой плавный ход, превращаясь в сюжет самой настоящей детективной истории. Это происходит после случайного знакомства Тес со странным незнакомцем по имени Мэл, который предлагает девушкам шанс на лучшую жизнь через совершение «маленького правонарушения».
Не долго думая, подруги решают согласиться на заманчивую сделку, ещё не зная, что же ждёт их впереди. Но стремление изменить жизнь к лучшему, выбраться из пут «скучной жизни» берёт верх, поэтому подруги оказываются вовлечены в водоворот незабываемых приключений и попадают в самый центр явно не скучного развития событий. Когда девушки понимают, что «соскочить» уже не получится, им приходится идти до конца, ценой неимоверных усилий расхлёбывать кашу, которую они сами же и заварили…
-Бонусы: Смотрите на DVD, Фотогалерея, Создатели и исполнители- -Релиз группы: -Качество: DVD9 R5
Формат: DVD-Video
Видео кодек: MPEG2
Аудио кодек: AC3 + DTS
Видео: PAL 16:9 (720x576(0.569)) MPEG Video, 25,000 кадр/сек, 5901 Кбит/сек
Аудио #1: Russian (Dolby AC3, 6 ch) 448 Кбит/сек, 48,0 КГц
Аудио #2: English (Dolby AC3, 6 ch) 448 Кбит/сек, 48,0 КГц
Аудио #3: Russian (DTS, 6 ch) 768 Кбит/сек, 48,0 КГц-
-

DVDInfo

Title:
Size: 5.52 Gb ( 5 791 504 KBytes ) - DVD-9
Enabled regions: 1, 2, 3, 4, 5, 6, 7, 8
VTS_01 :
Play Length: 00:00:05
Video: PAL 4:3 (720x576) VBR
Subtitles:
English
English
VTS_02 :
Play Length: 00:00:09
Video: PAL 16:9 (720x576) VBR, Auto Pan&Scan
Audio:
Not specified (Dolby AC3, 2 ch)
Subtitles:
Not specified
VTS_03 :
Play Length: 00:02:15
Video: PAL 16:9 (720x576) VBR, Auto Pan&Scan
Audio:
Not specified (Dolby AC3, 2 ch)
Not specified (Dolby AC3, 2 ch)
Not specified (Dolby AC3, 2 ch)
Subtitles:
Not specified
VTS_04 :
Play Length: 01:29:45
Video: PAL 16:9 (720x576) VBR, Auto Pan&Scan
Audio:
Russian (Dolby AC3, 6 ch)
English (Dolby AC3, 6 ch)
Russian (DTS, 6 ch)
Subtitles:
Russian
VTS_05 :
Play Length: 00:02:00
Video: PAL 16:9 (720x576) VBR, Auto Pan&Scan
Audio:
Not specified (Dolby AC3, 2 ch)
Subtitles:
Not specified
VTS_06 :
Play Length: 00:02:25
Video: PAL 16:9 (720x576) VBR, Auto Pan&Scan
Audio:
Not specified (Dolby AC3, 6 ch)
Subtitles:
Not specified
VTS_07 :
Play Length: 00:01:52
Video: PAL 16:9 (720x576) VBR, Auto Pan&Scan
Audio:
Not specified (Dolby AC3, 6 ch)
Subtitles:
Not specified
VTS_08 :
Play Length: 00:01:34
Video: PAL 16:9 (720x576) VBR, Auto Pan&Scan
Audio:
Not specified (Dolby AC3, 2 ch)
Subtitles:
Not specified
VTS_09 :
Play Length: 00:01:37
Video: PAL 16:9 (720x576) VBR, Auto Pan&Scan
Audio:
Not specified (Dolby AC3, 2 ch)
Subtitles:
Not specified
VTS_10 :
Play Length: 00:02:57
Video: PAL 16:9 (720x576) VBR, Auto Pan&Scan
Audio:
Not specified (Dolby AC3, 2 ch)

MediaInfo

Общее
Полное имя : G:\Новинки 2012\Ulovka.44.2011.DVD9\VIDEO_TS\VTS_04_1.VOB
Формат : MPEG-PS
Размер файла : 1024 Мбайт
Продолжительность : 18 м.
Режим общего битрейта : Переменный
Общий поток : 7705 Кбит/сек
Видео
Идентификатор : 224 (0xE0)
Формат : MPEG Video
Версия формата : Version 2
Профиль формата : [email protected]
Параметр BVOP формата : Да
Параметр матрицы формата : Выборочная
Продолжительность : 18 м.
Вид битрейта : Переменный
Битрейт : 5901 Кбит/сек
Максимальный битрейт : 8000 Кбит/сек
Ширина : 720 пикселей
Высота : 576 пикселей
Соотношение сторон : 16:9
Частота кадров : 25,000 кадров/сек
Стандарт вещания : PAL
Цветовое пространство : YUV
Субдискретизация насыщенности : 4:2:0
Битовая глубина : 8 бит
Тип развёртки : Чересстрочная
Порядок развёртки : Нижнее поле первое
Метод сжатия : С потерями
Бит/(Пиксели*Кадры) : 0.569
Размер потока : 784 Мбайт (77%)
Аудио #1
Идентификатор : 189 (0xBD)-128 (0x80)
Формат : AC-3
Формат/Информация : Audio Coding 3
Расширение режима : CM (complete main)
Режим смешивания : DVD-Video
Продолжительность : 18 м.
Вид битрейта : Постоянный
Битрейт : 448 Кбит/сек
Каналы : 6 каналов
Расположение каналов : Front: L C R, Side: L R, LFE
Частота : 48,0 КГц
Битовая глубина : 16 бит
Метод сжатия : С потерями
Размер потока : 59,5 Мбайт (6%)
Аудио #2
Идентификатор : 189 (0xBD)-129 (0x81)
Формат : AC-3
Формат/Информация : Audio Coding 3
Расширение режима : CM (complete main)
Режим смешивания : DVD-Video
Продолжительность : 18 м.
Вид битрейта : Постоянный
Битрейт : 448 Кбит/сек
Каналы : 6 каналов
Расположение каналов : Front: L C R, Side: L R, LFE
Частота : 48,0 КГц
Битовая глубина : 16 бит
Метод сжатия : С потерями
Размер потока : 59,5 Мбайт (6%)
Аудио #3
Идентификатор : 189 (0xBD)-138 (0x8A)
Формат : DTS
Формат/Информация : Digital Theater Systems
Режим смешивания : DVD-Video
Продолжительность : 18 м.
Вид битрейта : Постоянный
Битрейт : 755 Кбит/сек
Каналы : 6 каналов
Расположение каналов : Front: L C R, Side: L R, LFE
Частота : 48,0 КГц
Битовая глубина : 24 бит
Метод сжатия : С потерями
Размер потока : 100 Мбайт (10%)

Скриншоты меню

       

Скриншоты фильма

               

Скриншоты доп. материалов

         
-
-
-
-


Last edited by voovaz on 2012-02-10 00:58; edited 1 time in total
Other forum [Profile] [PM]

Nugeiro

Gender:

Longevity: 10 years

Posts: 1981

Location: Украина, Шостка

Торрент-статистика

Post 10-Feb-2012 00:59 (after 3 hours)

[Quote]

voovaz, заливай постеры на рекомендуемые хостинги

_________________
Other forum [Profile] [PM]
Display posts from previous:    
Reply to topic

The time now is: Today 09:31

All times are GMT + 3 Hours



You cannot post new topics in this forum
You cannot reply to topics in this forum
You cannot edit your posts in this forum
You cannot delete your posts in this forum
You cannot vote in polls in this forum
You cannot attach files in this forum
You cannot download files in this forum