Today is a free download without charge Download

Ванька Жуков (Леонид Зарубин) [1981 г., мультфильм, DVB]

Reply to topic
 
Author
Message

Omen ®

Longevity: 7 years 11 months

Posts: 181087

Торрент-статистика

Post 05-Dec-2014 23:30

[Quote]

Ванька Жуков
Жанр: мультфильм
Год выпуска: 1981
Продолжительность: 00:09:52
Режиссёр: Леонид Зарубин
Описание: Мультфильм о том, как 9-летний мальчик Ванька Жуков в письме к дедушке жалуется на свою тяжелую жизнь…
(по рассказу Антона Чехова)

Качество видео: DVB (Канал "ПлюсПлюс")
Формат видео: MPG
Видео: 720x576 (4:3) @ 768x576, 25.000 fps, MPEG-2 Video, ~4000 Kbps, 0.386 bits/pixel
Аудио: 48.0 KHz, MPEG-1 Audio layer 2, 2 ch, 192 Kbps

MediaInfo

GeneralComplete name : Ванька Жуков 1981 ПлюсПлюс.mpgFormat : MPEG-PSFile size : 302 MiBDuration : 9mn 52sOverall bit rate mode : VariableOverall bit rate : 4 277 Kbps
VideoID : 224 (0xE0)Format : MPEG VideoFormat version : Version 2Format profile : [email protected] settings, BVOP : YesFormat settings, Matrix : CustomFormat settings, GOP : VariableFormat settings, picture structure : FrameDuration : 9mn 52sBit rate mode : VariableBit rate : 4 000 KbpsMaximum bit rate : 15.0 MbpsWidth : 720 pixelsHeight : 576 pixelsDisplay aspect ratio : 4:3Frame rate : 25.000 fpsStandard : PALColor space : YUVChroma subsampling : 4:2:0Bit depth : 8 bitsScan type : InterlacedScan order : Top Field FirstCompression mode : LossyBits/(Pixel*Frame) : 0.386Time code of first frame : 00:00:00:00Time code source : Group of pictures headerGOP, Open/Closed : OpenStream size : 282 MiB (94%)GOP, Open/Closed of first frame : Closed
AudioID : 192 (0xC0)Format : MPEG AudioFormat version : Version 1Format profile : Layer 2Duration : 9mn 52sBit rate mode : ConstantBit rate : 192 KbpsChannel(s) : 2 channelsSampling rate : 48.0 KHzCompression mode : LossyStream size : 13.6 MiB (4%)

Скриншоты

Other forum [Profile] [PM]
Display posts from previous:    
Reply to topic

The time now is: Today 04:10

All times are GMT + 3 Hours



You cannot post new topics in this forum
You cannot reply to topics in this forum
You cannot edit your posts in this forum
You cannot delete your posts in this forum
You cannot vote in polls in this forum
You cannot attach files in this forum
You cannot download files in this forum