Today is a free download without charge Download

Сначала любовь, потом свадьба / Love, Wedding, Marriage (Дермот Малруни / Dermot Mulroney) [2011, США, мелодрама, комедия, DVD5] R5 «Новый Диск»

Reply to topic
 
Author
Message

voovaz ®

Gender:

Longevity: 9 years 5 months

Posts: 87

Торрент-статистика

Post 09-Feb-2012 00:49

[Quote]

-Сначала любовь, потом свадьба / Love, Wedding, Marriage-«Here comes the ride.» -Страна: США
Студия: Chydzik Media Group, First Wedding Productions, Voodoo Production Services
Жанр: мелодрама, комедия
Год выпуска: 2011
Мировая премьера: 3 июня 2011
Российская премьера: 19 января 2012, «Top Film Distribution»
Дата выхода DVD: 9 февраля 2012, «Новый Диск»
Продолжительность: 01:26:27
Перевод: Профессиональный (дублированный) [Лицензия]
Cубтитры: нет-Режиссер: Дермот Малруни / Dermot Mulroney-В ролях: Мэнди Мур, Келлан Латс, Джеймс Бролин, Джейн Сеймур, Джессика Зор, Майкл Уэстон, Марта Жмуда, Ричард Рейд, Кристофер Ллойд, Алексис Денисоф-Описание: Ева Далтон — успешный брачный агент, чья философия брака основывается на 30-ти летнем браке ее родителей, однако внезапно родители подают на развод, и это переворачивает мир Евы. Вместе с сестрой они решают во что бы то ни стало предотвратить развод родителей.-Бонусы: нет- -Качество: DVD5 R5
Формат: DVD-Video
Видео кодек: MPEG2
Аудио кодек: AC3
Видео: PAL 16:9 (720x576(0.612)) MPEG Video, 25,000 кадр/сек, 6348 Кбит/сек
Аудио: Russian (Dolby AC3, 6 ch) 384 Кбит/сек, 48,0 КГц

DVDInfo

Title:
Size: 4.26 Gb ( 4 463 392 KBytes ) - DVD-5
Enabled regions: 1, 2, 3, 4, 5, 6, 7, 8
VTS_01 :
Play Length: 00:00:08
Video: PAL 4:3 (720x576) VBR
VTS_02 :
Play Length: 00:00:13
Video: PAL 16:9 (720x576) VBR, Auto Pan&Scan
VTS_03 :
Play Length: 01:26:27
Video: PAL 16:9 (720x576) VBR, Auto Pan&Scan
Audio:
Russian (Dolby AC3, 6 ch)
VTS_04 :
Play Length: 00:02:08+00:01:58+00:01:12
Video: PAL 16:9 (720x576) VBR, Auto Pan&Scan
Audio:
English (Dolby AC3, 2 ch)
Subtitles:
English
VTS_05 :
Play Length: 00:00:15
Video: PAL 4:3 (720x576) VBR
Audio:
English (Dolby AC3, 2 ch)
Menu Video:
PAL 4:3 (720x576) VBR
Auto Pan&Scan, Auto Letterboxed
Menu Russian Language Unit :
Root Menu
Chapter (PTT) Menu
Angle menu

MediaInfo

Общее
Полное имя : G:\Новинки 2012\Snachala.ljubov.potom.svadba.2011.DVD5\VIDEO_TS\VTS_03_2.VOB
Формат : MPEG-PS
Размер файла : 1024 Мбайт
Продолжительность : 20 м.
Режим общего битрейта : Переменный
Общий поток : 6869 Кбит/сек
Видео
Идентификатор : 224 (0xE0)
Формат : MPEG Video
Версия формата : Version 2
Профиль формата : Mai[email protected]
Параметр BVOP формата : Да
Параметр матрицы формата : Выборочная
Параметр GOP формата : M=3, N=15
Продолжительность : 20 м.
Вид битрейта : Переменный
Битрейт : 6348 Кбит/сек
Максимальный битрейт : 8000 Кбит/сек
Ширина : 720 пикселей
Высота : 576 пикселей
Соотношение сторон : 16:9
Частота кадров : 25,000 кадров/сек
Стандарт вещания : PAL
Цветовое пространство : YUV
Субдискретизация насыщенности : 4:2:0
Битовая глубина : 8 бит
Тип развёртки : Чересстрочная
Порядок развёртки : Верхнее поле первое
Метод сжатия : С потерями
Бит/(Пиксели*Кадры) : 0.612
Размер потока : 946 Мбайт (92%)
Аудио
Идентификатор : 189 (0xBD)-128 (0x80)
Формат : AC-3
Формат/Информация : Audio Coding 3
Расширение режима : CM (complete main)
Режим смешивания : DVD-Video
Продолжительность : 20 м.
Вид битрейта : Постоянный
Битрейт : 384 Кбит/сек
Каналы : 6 каналов
Расположение каналов : Front: L C R, Side: L R, LFE
Частота : 48,0 КГц
Битовая глубина : 16 бит
Метод сжатия : С потерями
Задержка видео : -808 мс.
Размер потока : 57,2 Мбайт (6%)

Скриншоты меню

   

Скриншоты фильма

               
-
-
-
-
Other forum [Profile] [PM]
Display posts from previous:    
Reply to topic

The time now is: Today 11:12

All times are GMT + 3 Hours



You cannot post new topics in this forum
You cannot reply to topics in this forum
You cannot edit your posts in this forum
You cannot delete your posts in this forum
You cannot vote in polls in this forum
You cannot attach files in this forum
You cannot download files in this forum